<?xml version="1.0" standalone="no"?>
<!DOCTYPE svg PUBLIC "-//W3C//DTD SVG 1.1//EN" "http://www.w3.org/Graphics/SVG/1.1/DTD/svg11.dtd" >
<svg xmlns="http://www.w3.org/2000/svg" xmlns:xlink="http://www.w3.org/1999/xlink" version="1.1">
<metadata>
Created by FontForge 20170731 at Tue Feb 25 22:57:33 2020
 By Aleksey,,,
Copyright 1990-1993 Bitstream Inc.  All rights reserved.
</metadata>
<defs>
<font id="FuturaWindows-BoldItalic" horiz-adv-x="1024" >
  <font-face 
    font-family="Futura Windows"
    font-weight="700"
    font-style="italic"
    font-stretch="normal"
    units-per-em="2048"
    panose-1="2 11 8 2 2 2 4 9 2 4"
    ascent="1638"
    descent="-410"
    x-height="981"
    cap-height="1464"
    bbox="-342 -514 2284 1973"
    underline-thickness="190"
    underline-position="-508"
    slope="-7.5"
    unicode-range="U+001D-F002"
  />
<missing-glyph horiz-adv-x="1229" 
d="M102 -362v1806h1024v-1806h-1024zM217 -248h795v1577h-795v-1577z" />
    <glyph glyph-name=".notdef" horiz-adv-x="1229" 
d="M102 -362v1806h1024v-1806h-1024zM217 -248h795v1577h-795v-1577z" />
    <glyph glyph-name="uni0000" horiz-adv-x="0" 
 />
    <glyph glyph-name="uni0000" horiz-adv-x="0" 
 />
    <glyph glyph-name="uni000D" horiz-adv-x="608" 
 />
    <glyph glyph-name="space" unicode=" " horiz-adv-x="608" 
 />
    <glyph glyph-name="exclam" unicode="!" horiz-adv-x="657" 
d="M150 451l141 1046h284l-139 -1046h-286zM80 133q0 71 50 120.5t122 49.5t122 -49.5t50 -120.5t-50.5 -121.5t-121.5 -50.5q-72 0 -122 50.5t-50 121.5z" />
    <glyph glyph-name="quotedbl" unicode="&#x22;" horiz-adv-x="678" 
d="M406 1438h192v-559h-192v559zM80 1438h192v-559h-192v559z" />
    <glyph glyph-name="numbersign" unicode="#" horiz-adv-x="1575" 
d="M709 848l-88 -244h251l86 244h-249zM709 1464h221l-146 -415h242l148 415h221l-148 -415h283l-74 -201h-280l-84 -242h290l-71 -200h-291l-148 -416h-221l148 416h-244l-149 -416h-220l146 416h-287l76 200h282l86 242h-299l74 201h297z" />
    <glyph glyph-name="dollar" unicode="$" horiz-adv-x="1219" 
d="M233 391q55 -89 118.5 -131.5t142.5 -42.5l53 404q-178 86 -256 184.5t-78 234.5q0 179 122.5 299t319.5 134l23 172h96l-22 -175q105 -7 187.5 -52.5t139.5 -127.5l-155 -192q-41 63 -90 96t-113 39l-49 -365q186 -88 265 -192.5t79 -261.5q0 -190 -126.5 -312
t-334.5 -133l-29 -217h-98l31 215q-114 6 -210 60t-181 159zM635 573l-47 -348q67 19 104 67.5t37 119.5q0 48 -23 87.5t-71 73.5zM584 922l41 303q-64 -20 -97.5 -60t-33.5 -96q0 -47 20 -80.5t70 -66.5z" />
    <glyph glyph-name="percent" unicode="%" horiz-adv-x="1608" 
d="M430 1341q-62 0 -109 -92t-47 -221q0 -92 22.5 -132t74.5 -40q61 0 106 98t45 242q0 74 -22.5 109.5t-69.5 35.5zM436 1483q144 0 216.5 -82.5t72.5 -247.5q0 -190 -106 -315t-267 -125q-136 0 -208 81.5t-72 235.5q0 199 102 326t262 127zM1231 588q-62 0 -109 -92.5
t-47 -221.5q0 -92 22.5 -132t73.5 -40q61 0 106.5 99t45.5 243q0 74 -22.5 109t-69.5 35zM870 279q0 198 103 324t264 126q143 0 215 -82t72 -246q0 -191 -105.5 -316.5t-265.5 -125.5q-136 0 -209.5 83t-73.5 237zM307 -39l826 1518h149l-823 -1518h-152z" />
    <glyph glyph-name="ampersand" unicode="&#x26;" horiz-adv-x="1446" 
d="M635 979q94 48 140 100.5t46 110.5q0 55 -34.5 90t-88.5 35q-58 0 -95.5 -40.5t-37.5 -103.5q0 -33 16 -77t54 -115zM764 330l-217 319q-101 -63 -145 -120.5t-44 -125.5q0 -80 49 -131t125 -51q56 0 113.5 27t118.5 82zM993 0l-92 135q-88 -91 -181 -132.5t-210 -41.5
q-198 0 -321 116.5t-123 301.5q0 144 86.5 260.5t267.5 214.5q-60 102 -87.5 177.5t-27.5 139.5q0 142 105.5 235t269.5 93q168 0 276.5 -88t108.5 -223q0 -107 -70 -199.5t-239 -204.5l194 -284q80 79 123 126t80 93l160 -184q-80 -89 -128.5 -139.5t-88.5 -88.5l223 -307
h-326z" />
    <glyph glyph-name="quotesingle" unicode="'" horiz-adv-x="352" 
d="M80 1438h192v-559h-192v559z" />
    <glyph glyph-name="parenleft" unicode="(" horiz-adv-x="688" 
d="M285 -514q-94 193 -140.5 396.5t-46.5 420.5q0 352 115.5 666.5t345.5 591.5l137 -111q-198 -248 -300.5 -532t-102.5 -588q0 -225 40.5 -416t123.5 -354z" />
    <glyph glyph-name="parenright" unicode=")" horiz-adv-x="688" 
d="M346 1561q93 -193 139.5 -397.5t46.5 -422.5q0 -351 -115 -664.5t-345 -590.5l-138 111q199 247 301.5 531.5t102.5 588.5q0 224 -40.5 414t-123.5 354z" />
    <glyph glyph-name="asterisk" unicode="*" horiz-adv-x="924" 
d="M217 881l-65 141l239 88l-207 143l95 123l184 -168l18 256l156 -18l-45 -250l213 117l61 -144l-229 -92l199 -135l-91 -125l-182 166l-14 -242l-154 19l45 235z" />
    <glyph glyph-name="plus" unicode="+" horiz-adv-x="1706" 
d="M752 1221h202v-510h498v-199h-498v-512h-202v512h-498v199h498v510z" />
    <glyph glyph-name="comma" unicode="," horiz-adv-x="608" 
d="M20 -317h-206l350 612h311z" />
    <glyph glyph-name="hyphen" unicode="-" horiz-adv-x="854" 
d="M90 362l33 252h573l-32 -252h-574z" />
    <glyph glyph-name="period" unicode="." horiz-adv-x="608" 
d="M53 143q0 72 50.5 123t121.5 51t121.5 -51t50.5 -123q0 -71 -50 -120.5t-122 -49.5t-122 49.5t-50 120.5z" />
    <glyph glyph-name="slash" unicode="/" horiz-adv-x="985" 
d="M0 -190l782 1687h203l-782 -1687h-203z" />
    <glyph glyph-name="zero" unicode="0" horiz-adv-x="1219" 
d="M662 1217q-129 0 -209 -188t-80 -499q0 -155 44.5 -231t135.5 -76q132 0 211.5 182.5t79.5 493.5q0 163 -44.5 240.5t-137.5 77.5zM1143 858q0 -404 -169 -650.5t-442 -246.5q-220 0 -338 160.5t-118 462.5q0 401 166.5 648t433.5 247q227 0 347 -159.5t120 -461.5z" />
    <glyph glyph-name="one" unicode="1" horiz-adv-x="1219" 
d="M410 0l159 1204h-252l33 246h539l-191 -1450h-288z" />
    <glyph glyph-name="two" unicode="2" horiz-adv-x="1219" 
d="M-45 0l8 39l637 616q144 140 205 234t61 174q0 93 -55.5 143.5t-157.5 50.5q-110 0 -177 -69.5t-68 -185.5l-281 -1q6 226 146.5 352t385.5 126q229 0 357.5 -106t128.5 -292q0 -167 -130.5 -342.5t-510.5 -490.5h538l-32 -248h-1055z" />
    <glyph glyph-name="three" unicode="3" horiz-adv-x="1219" 
d="M340 397v-18q0 -81 53.5 -131.5t138.5 -50.5q103 0 168.5 64.5t65.5 164.5q0 97 -72 148.5t-212 56.5l30 248q7 -1 16 -1.5t27 -0.5q122 0 191 53.5t69 148.5q0 78 -48.5 123t-133.5 45q-78 0 -129.5 -44t-63.5 -120h-264q25 184 152 290t323 106q202 0 326.5 -100
t124.5 -261q0 -138 -81 -237t-224 -138q131 -41 196.5 -127.5t65.5 -218.5q0 -189 -146.5 -311.5t-380.5 -122.5q-218 0 -339.5 112.5t-129.5 321.5h277z" />
    <glyph glyph-name="four" unicode="4" horiz-adv-x="1219" 
d="M616 0l37 281h-596l31 231l750 938h247l-124 -948h157l-31 -221h-155l-37 -281h-279zM688 502l60 424q2 18 11 65.5t23 107.5l-6 -8q-83 -120 -108 -153l-340 -436h360z" />
    <glyph glyph-name="five" unicode="5" horiz-adv-x="1219" 
d="M201 356q51 -75 117.5 -112t152.5 -37q132 0 222.5 85t90.5 208q0 125 -74.5 197.5t-203.5 72.5q-71 0 -140.5 -24.5t-148.5 -77.5l-51 45l223 737h725l-33 -238h-512l-73 -247q22 4 45.5 6t50.5 2q212 0 347.5 -132t135.5 -337q0 -228 -165 -384.5t-408 -156.5
q-167 0 -286 54t-212 171z" />
    <glyph glyph-name="six" unicode="6" horiz-adv-x="1219" 
d="M1047 1450l-359 -426q-29 -34 -63 -69.5t-72 -73.5q40 6 70.5 9t52.5 3q186 0 302 -118.5t116 -307.5q0 -217 -159.5 -362.5t-402.5 -145.5q-208 0 -334 122t-126 322q0 140 79.5 297t276.5 394l297 356h322zM588 662q-100 0 -168 -71t-68 -175q0 -95 56.5 -151
t150.5 -56q108 0 178 69t70 175q0 97 -58.5 153t-160.5 56z" />
    <glyph glyph-name="seven" unicode="7" horiz-adv-x="1219" 
d="M106 70l662 1130h-578l33 250h963l-15 -111l-804 -1398z" />
    <glyph glyph-name="eight" unicode="8" horiz-adv-x="1219" 
d="M365 403q0 -91 55 -147.5t143 -56.5q102 0 166 69t64 181q0 90 -56.5 145t-148.5 55q-97 0 -160 -69t-63 -177zM467 1047q0 -83 48 -131t130 -48q90 0 146.5 58t56.5 149q0 80 -48 128t-128 48q-92 0 -148.5 -56.5t-56.5 -147.5zM401 788q-93 52 -141.5 130t-48.5 176
q0 169 129.5 277t333.5 108q206 0 322 -95.5t116 -263.5q0 -124 -69.5 -213.5t-204.5 -140.5q116 -40 175.5 -125.5t59.5 -214.5q0 -204 -145 -334.5t-375 -130.5q-220 0 -344.5 112t-124.5 310q0 149 79 249.5t238 155.5z" />
    <glyph glyph-name="nine" unicode="9" horiz-adv-x="1219" 
d="M621 774q99 0 168 72t69 176q0 94 -56 150.5t-151 56.5q-107 0 -177.5 -69t-70.5 -175q0 -98 58 -154.5t160 -56.5zM172 0l350 414q21 25 56.5 62.5t78.5 80.5q-40 -6 -70.5 -9t-51.5 -3q-186 0 -302 118.5t-116 307.5q0 216 159.5 362t401.5 146q208 0 334.5 -122
t126.5 -323q0 -140 -80 -296.5t-279 -393.5l-284 -344h-324z" />
    <glyph glyph-name="colon" unicode=":" horiz-adv-x="657" 
d="M166 797q0 71 49.5 120.5t120.5 49.5q72 0 122 -49.5t50 -120.5q0 -72 -50.5 -122t-121.5 -50t-120.5 50t-49.5 122zM80 143q0 72 50.5 122t121.5 50t120.5 -50t49.5 -122q0 -71 -49.5 -120.5t-120.5 -49.5q-72 0 -122 49.5t-50 120.5z" />
    <glyph glyph-name="semicolon" unicode=";" horiz-adv-x="657" 
d="M-2 -317h-207l350 612h312zM178 797q0 71 50.5 120.5t121.5 49.5q72 0 121 -49.5t49 -120.5q0 -72 -49.5 -122t-120.5 -50t-121.5 50t-50.5 122z" />
    <glyph glyph-name="less" unicode="&#x3c;" horiz-adv-x="1706" 
d="M1442 1194v-219l-893 -365l893 -364v-219l-1178 485v199z" />
    <glyph glyph-name="equal" unicode="=" horiz-adv-x="1706" 
d="M254 496h1198v-199h-1198v199zM254 926h1198v-199h-1198v199z" />
    <glyph glyph-name="greater" unicode="&#x3e;" horiz-adv-x="1706" 
d="M264 1194l1178 -483v-199l-1178 -485v219l895 364l-895 365v219z" />
    <glyph glyph-name="question" unicode="?" horiz-adv-x="1063" 
d="M252 133q0 72 49.5 121t120.5 49q72 0 122 -49.5t50 -120.5t-50.5 -121.5t-121.5 -50.5t-120.5 50t-49.5 122zM324 449l51 382h12q161 0 253.5 72.5t92.5 196.5q0 76 -44.5 124t-115.5 48q-74 0 -124 -46.5t-68 -131.5h-262q18 186 147.5 295.5t331.5 109.5
q188 0 302 -109.5t114 -291.5q0 -183 -106 -304t-285 -143l-27 -202h-272z" />
    <glyph glyph-name="at" unicode="@" horiz-adv-x="2048" 
d="M1167 272q-55 -84 -127 -123.5t-170 -39.5q-158 0 -240.5 86t-82.5 254q0 239 139.5 401t343.5 162q80 0 139 -33t97 -98l53 98h178l-147 -598q-3 -11 -5 -22.5t-2 -18.5q0 -35 24 -52.5t71 -17.5q39 0 81.5 20t79.5 56q86 80 130.5 187t44.5 235q0 240 -185.5 394.5
t-478.5 154.5q-141 0 -262.5 -34t-220.5 -101q-170 -114 -261.5 -285t-91.5 -375q0 -307 207 -490.5t553 -183.5q162 0 316.5 49t287.5 142l82 -117q-153 -115 -324.5 -173t-357.5 -58q-192 0 -353 48.5t-286 143.5q-155 121 -232 279t-77 358q0 167 52.5 318.5t154.5 275.5
q148 181 356 274t463 93q169 0 317.5 -45.5t258.5 -128.5q135 -105 201.5 -239.5t66.5 -303.5q0 -165 -65.5 -304.5t-188.5 -238.5q-70 -56 -152.5 -85.5t-171.5 -29.5q-106 0 -159.5 42t-55.5 124zM1217 700q-13 81 -57.5 123.5t-117.5 42.5q-114 0 -198 -124t-84 -298
q0 -92 40.5 -140t117.5 -48q83 0 151.5 63t93.5 164z" />
    <glyph glyph-name="A" unicode="A" horiz-adv-x="1470" 
d="M-72 0l758 1464h334l352 -1464h-325l-62 315h-557l-158 -315h-342zM928 555l-70 346q-10 53 -18 128.5t-15 180.5q-22 -80 -47 -148.5t-53 -127.5l-178 -379h381z" />
    <glyph glyph-name="B" unicode="B" horiz-adv-x="1190" 
d="M397 242h60q191 0 264.5 47.5t73.5 161.5q0 97 -61 137.5t-230 40.5h-55zM526 1225l-47 -355h33q171 0 236 44t65 149q0 90 -52.5 126t-207.5 36h-27zM63 0l193 1464h303q191 0 278 -20t148 -68q62 -49 93.5 -115t31.5 -147q0 -142 -83 -236t-226 -114
q140 -21 219.5 -106.5t79.5 -215.5q0 -114 -48 -206t-139 -152q-69 -46 -171 -65t-341 -19h-338z" />
    <glyph glyph-name="C" unicode="C" horiz-adv-x="1446" 
d="M1233 53q-92 -46 -198.5 -69t-227.5 -23q-322 0 -518.5 192t-196.5 504q0 163 55 311t158 265q115 130 274.5 198t348.5 68q134 0 250.5 -33t220.5 -100l-43 -287q-111 80 -216 118t-212 38q-231 0 -378 -158t-147 -405q0 -203 116 -323t312 -120q127 0 235.5 34.5
t201.5 105.5z" />
    <glyph glyph-name="D" unicode="D" horiz-adv-x="1518" 
d="M403 262h18q105 -4 150 -4q160 0 252 27.5t154 91.5q68 71 103.5 176.5t35.5 237.5q0 216 -91.5 311.5t-301.5 95.5h-197zM63 0l193 1464h307q260 0 368 -16.5t181 -54.5q154 -81 236 -240t82 -379q0 -213 -73.5 -366t-230.5 -267q-105 -76 -244.5 -108.5t-432.5 -32.5
h-117h-269z" />
    <glyph glyph-name="E" unicode="E" horiz-adv-x="1169" 
d="M63 0l193 1464h870l-32 -258h-568l-43 -329h566l-33 -252h-567l-48 -367h568l-35 -258h-871z" />
    <glyph glyph-name="F" unicode="F" horiz-adv-x="1149" 
d="M63 0l193 1464h870l-32 -258h-566l-43 -329h564l-33 -252h-563l-82 -625h-308z" />
    <glyph glyph-name="G" unicode="G" horiz-adv-x="1657" 
d="M1286 1018q-64 107 -161 164t-216 57q-219 0 -362.5 -161.5t-143.5 -407.5q0 -203 118 -323t315 -120q136 0 237.5 74.5t147.5 208.5h-347l33 256h664q-23 -384 -220 -594.5t-532 -210.5q-332 0 -529.5 191.5t-197.5 513.5q0 158 56.5 309t160.5 270q106 123 261 187.5
t343 64.5q213 0 365 -77t246 -232z" />
    <glyph glyph-name="H" unicode="H" horiz-adv-x="1532" 
d="M63 0l193 1464h307l-76 -569h598l76 569h305l-192 -1464h-307l84 635h-596l-84 -635h-308z" />
    <glyph glyph-name="I" unicode="I" horiz-adv-x="635" 
d="M68 0l192 1464h307l-192 -1464h-307z" />
    <glyph glyph-name="J" unicode="J" horiz-adv-x="909" 
d="M-63 285l284 55q2 -63 23 -94t63 -31q85 0 123 312q8 64 12 97l111 840h307l-115 -871q-4 -31 -12 -94q-40 -317 -110 -413q-47 -63 -123 -94t-185 -31q-180 0 -277 83t-101 241z" />
    <glyph glyph-name="K" unicode="K" horiz-adv-x="1325" 
d="M63 0l193 1464h307l-88 -659l572 659h362l-625 -702l441 -762h-344l-414 739l-96 -739h-308z" />
    <glyph glyph-name="L" unicode="L" horiz-adv-x="999" 
d="M63 0l193 1464h307l-160 -1204h508l-34 -260h-814z" />
    <glyph glyph-name="M" unicode="M" horiz-adv-x="1851" 
d="M-31 0l414 1464h324l139 -669q15 -77 26.5 -175t18.5 -212q24 89 54 172.5t67 162.5l329 721h336l19 -1464h-289l8 684q2 115 8.5 232t18.5 237q-40 -115 -79.5 -215.5t-78.5 -183.5l-358 -754h-166l-178 823q-13 63 -24 152t-19 196q-23 -134 -38 -213t-24 -112
l-205 -846h-303z" />
    <glyph glyph-name="N" unicode="N" horiz-adv-x="1659" 
d="M63 0l193 1464h319l453 -755q73 -124 104 -187t50 -119q4 104 10 183.5t12 125.5l101 752h288l-194 -1464h-297l-504 852q-47 78 -76 137t-49 113v-47q0 -75 -4 -145t-12 -132l-109 -778h-285z" />
    <glyph glyph-name="O" unicode="O" horiz-adv-x="1745" 
d="M909 1233q-218 0 -362 -159.5t-144 -401.5q0 -204 116.5 -324.5t311.5 -120.5q217 0 361.5 162t144.5 402q0 203 -116 322.5t-312 119.5zM815 -39q-329 0 -527 192t-198 511q0 156 56 304t159 265q116 129 275.5 197.5t345.5 68.5q329 0 527 -189.5t198 -502.5
q0 -163 -50.5 -306.5t-146.5 -254.5q-121 -140 -284 -212.5t-355 -72.5z" />
    <glyph glyph-name="P" unicode="P" horiz-adv-x="1165" 
d="M477 809h47q174 0 236.5 50t62.5 171q0 102 -52 143t-206 41h-35zM371 0h-308l193 1464h283q207 0 293 -22t151 -74q72 -56 109.5 -139.5t37.5 -186.5q0 -121 -43.5 -218t-128.5 -162q-70 -55 -165.5 -79t-278.5 -24h-70z" />
    <glyph glyph-name="Q" unicode="Q" horiz-adv-x="1745" 
d="M715 563h319l127 -207q90 93 134 202t44 239q0 198 -116.5 317t-311.5 119q-219 0 -363.5 -160t-144.5 -403q0 -202 116.5 -322.5t309.5 -120.5q19 0 67 6q14 2 19 3zM1468 -141h-319l-86 137q-73 -17 -136.5 -26t-117.5 -9q-324 0 -521.5 193.5t-197.5 511.5
q0 155 56 302t159 265q116 129 275.5 197.5t345.5 68.5q327 0 526 -190t199 -500q0 -221 -87 -397.5t-255 -296.5z" />
    <glyph glyph-name="R" unicode="R" horiz-adv-x="1194" 
d="M479 831h45q174 0 236.5 47.5t62.5 163.5q0 99 -52.5 139t-205.5 40h-35zM371 0h-308l193 1464h305q191 0 275.5 -20t148.5 -68q71 -52 108 -127.5t37 -167.5q0 -168 -94.5 -277.5t-271.5 -148.5l332 -655h-336l-301 672z" />
    <glyph glyph-name="S" unicode="S" horiz-adv-x="1049" 
d="M154 393q52 -90 120 -133t160 -43q98 0 153.5 53t55.5 146q0 60 -32 107t-97 83q-16 9 -47 26q-180 98 -242 167q-45 51 -68.5 116.5t-23.5 141.5q0 189 136 315.5t343 126.5q125 0 222 -46.5t165 -139.5l-157 -203q-39 73 -96 109t-132 36q-85 0 -140.5 -49t-55.5 -125
q0 -99 182 -202q35 -20 53 -31q165 -97 224 -190t59 -240q0 -205 -138.5 -331t-367.5 -126q-139 0 -248 55t-194 168z" />
    <glyph glyph-name="T" unicode="T" horiz-adv-x="1081" 
d="M287 0l159 1208h-380l34 256h1039l-33 -256h-354l-158 -1208h-307z" />
    <glyph glyph-name="U" unicode="U" horiz-adv-x="1516" 
d="M551 1464l-111 -827q-4 -32 -6 -69t-2 -81q0 -135 66.5 -204.5t193.5 -69.5q90 0 158 36.5t113 108.5q56 92 91 358q2 15 3 21l98 727h303l-108 -823q-27 -203 -61.5 -300.5t-94.5 -172.5q-87 -107 -215 -158t-307 -51q-277 0 -413 125t-136 377q0 36 8.5 122t24.5 212
l88 669h307z" />
    <glyph glyph-name="V" unicode="V" horiz-adv-x="1346" 
d="M20 1464h320l219 -878q1 -3 2 -8q37 -144 47 -248q27 113 108 275q6 11 9 17l422 842h334l-774 -1464h-297z" />
    <glyph glyph-name="W" unicode="W" horiz-adv-x="1915" 
d="M1104 0l-98 815q-12 96 -16.5 159.5t-4.5 123.5q-8 -80 -24.5 -158.5t-40.5 -155.5l-246 -784h-291l-365 1464h301l203 -874q16 -69 25.5 -124t13.5 -101q7 67 24.5 143.5t45.5 163.5l246 792h311l110 -820q10 -62 14.5 -117.5t4.5 -108.5q0 -9 -1 -26.5t-1 -26.5
q17 99 37 176t43 131l331 792h312l-647 -1464h-287z" />
    <glyph glyph-name="X" unicode="X" horiz-adv-x="1194" 
d="M-119 0l537 758l-318 706h342l123 -329q8 -23 21 -66t28 -98q11 33 29 67.5t49 79.5l232 346h362l-514 -704l334 -760h-340l-150 389q-12 32 -22 68t-17 73q-19 -39 -36 -70t-33 -54l-272 -406h-355z" />
    <glyph glyph-name="Y" unicode="Y" horiz-adv-x="1186" 
d="M297 0l106 672l-370 792h338l143 -368q18 -46 32 -95t25 -103q19 50 99 178l16 26l232 362h360l-567 -790l-107 -674h-307z" />
    <glyph glyph-name="Z" unicode="Z" horiz-adv-x="1204" 
d="M-80 0v35l838 1188h-627l39 241h1083v-28l-831 -1190h682l-39 -246h-1145z" />
    <glyph glyph-name="bracketleft" unicode="[" horiz-adv-x="688" 
d="M14 -451l256 1948h435l-27 -199h-203l-203 -1550h203l-26 -199h-435z" />
    <glyph glyph-name="backslash" unicode="\" horiz-adv-x="985" 
d="M827 -190h-202l-467 1687h202z" />
    <glyph glyph-name="bracketright" unicode="]" horiz-adv-x="688" 
d="M621 1497l-259 -1948h-434l27 199h203l204 1550h-202l26 199h435z" />
    <glyph glyph-name="asciicircum" unicode="^" horiz-adv-x="2048" 
d="M897 1460h252l481 -561h-235l-371 371l-373 -371h-235z" />
    <glyph glyph-name="underscore" unicode="_" 
d="M0 -279h1024v-204h-1024v204z" />
    <glyph glyph-name="grave" unicode="`" 
d="M580 1126l-275 351h246l158 -351h-129z" />
    <glyph glyph-name="a" unicode="a" horiz-adv-x="1223" 
d="M801 545q0 114 -60 178.5t-166 64.5q-121 0 -191.5 -90.5t-70.5 -248.5q0 -108 63.5 -172t172.5 -64q113 0 182.5 91t69.5 241zM999 0h-282l16 109q-50 -74 -125 -111t-174 -37q-188 0 -292.5 122.5t-104.5 344.5q0 256 133.5 421t339.5 165q105 0 185 -42.5t134 -127.5
l17 137h282z" />
    <glyph glyph-name="b" unicode="b" horiz-adv-x="1223" 
d="M842 520q0 116 -59 180t-167 64q-121 0 -191.5 -91t-70.5 -249q0 -106 61.5 -170t164.5 -64q122 0 192 88t70 242zM225 1550h283l-74 -541q-4 -38 -12 -71.5t-18 -60.5q76 69 153.5 103t157.5 34q189 0 296 -122.5t107 -340.5q0 -265 -129.5 -427.5t-339.5 -162.5
q-92 0 -171 37t-159 119l-14 -117h-282z" />
    <glyph glyph-name="c" unicode="c" horiz-adv-x="969" 
d="M868 664q-64 52 -122.5 77t-118.5 25q-136 0 -219.5 -88t-83.5 -232q0 -110 66.5 -173.5t182.5 -63.5q62 0 129 19t148 61l-47 -271q-61 -29 -128 -43t-143 -14q-228 0 -362.5 131t-134.5 352q0 249 158.5 409.5t404.5 160.5q97 0 180.5 -26.5t157.5 -80.5z" />
    <glyph glyph-name="d" unicode="d" horiz-adv-x="1223" 
d="M801 545q0 115 -59.5 179t-166.5 64q-121 0 -191.5 -91.5t-70.5 -250.5q0 -107 63.5 -170t172.5 -63q113 0 182.5 91t69.5 241zM1001 0h-282l14 109q-48 -73 -123 -109.5t-176 -36.5q-189 0 -293 122t-104 343q0 257 132.5 421.5t338.5 164.5q109 0 193 -46t139 -137
q0 13 -1 35.5t-1 32.5q0 16 1 33.5t3 36.5l80 581h282z" />
    <glyph glyph-name="e" unicode="e" horiz-adv-x="1165" 
d="M330 594h462q-1 101 -53 156t-147 55q-101 0 -166.5 -53t-95.5 -158zM315 428v-22q0 -99 62.5 -156t171.5 -57q75 0 133.5 32.5t112.5 104.5l190 -158q-72 -105 -185.5 -158t-264.5 -53q-228 0 -364 132.5t-136 352.5q0 247 157 407.5t396 160.5q221 0 347 -134t126 -370
q0 -24 -4 -77v-5h-742z" />
    <glyph glyph-name="f" unicode="f" horiz-adv-x="729" 
d="M84 0l98 758h-176l31 223h176l21 138q2 15 7 47q33 224 95 302q41 51 103.5 76t148.5 25q72 0 135 -14.5t115 -43.5l-37 -262q-44 30 -81 44t-71 14q-62 0 -91.5 -38.5t-43.5 -142.5l-18 -145h237l-31 -223h-235l-100 -758h-283z" />
    <glyph glyph-name="g" unicode="g" horiz-adv-x="1223" 
d="M801 561q0 110 -59 172t-164 62q-123 0 -194 -87.5t-71 -240.5q0 -102 63 -164.5t165 -62.5q119 0 189.5 87t70.5 234zM854 981h274l-104 -807q-1 -10 -4 -30q-43 -332 -121 -431q-65 -81 -171.5 -120t-262.5 -39q-217 0 -333 86t-136 262l260 24q17 -80 71.5 -119.5
t147.5 -39.5q138 0 199.5 85.5t70.5 299.5q-55 -77 -131 -114.5t-178 -37.5q-190 0 -294.5 117.5t-104.5 331.5q0 247 133 406t338 159q106 0 188 -43t138 -127z" />
    <glyph glyph-name="h" unicode="h" horiz-adv-x="1247" 
d="M39 0l205 1550h280l-75 -579q-7 -45 -14.5 -76t-18.5 -59q86 92 172 135t184 43q159 0 247.5 -78t88.5 -217q0 -55 -17 -178q-2 -15 -3 -22l-68 -519h-283l72 547q3 29 4.5 50.5t1.5 35.5q0 69 -39 107t-110 38q-124 0 -192.5 -72.5t-88.5 -224.5l-63 -481h-283z" />
    <glyph glyph-name="i" unicode="i" horiz-adv-x="571" 
d="M199 1360q0 70 48 118t118 48q69 0 117 -48.5t48 -117.5t-48 -117.5t-117 -48.5q-70 0 -118 48t-48 118zM49 0l127 981h283l-127 -981h-283z" />
    <glyph glyph-name="j" unicode="j" horiz-adv-x="571" 
d="M-10 -446l186 1427h283l-187 -1427h-282zM199 1360q0 70 48 118t118 48q69 0 117 -48.5t48 -117.5t-48 -117.5t-117 -48.5q-70 0 -118 48t-48 118z" />
    <glyph glyph-name="k" unicode="k" horiz-adv-x="1143" 
d="M39 0l205 1550h280l-129 -987l434 418h355l-488 -436l379 -545h-323l-361 535l-69 -535h-283z" />
    <glyph glyph-name="l" unicode="l" horiz-adv-x="571" 
d="M49 0l203 1550h283l-203 -1550h-283z" />
    <glyph glyph-name="m" unicode="m" horiz-adv-x="1747" 
d="M39 0l129 981h262l-22 -154q78 100 152.5 143.5t164.5 43.5q101 0 169 -49t103 -146q86 106 162 150.5t166 44.5q130 0 205.5 -79.5t75.5 -217.5q0 -32 -4 -75.5t-15 -125.5l-67 -516h-279l70 547q1 11 4 33q6 47 6 55q0 73 -31.5 109t-95.5 36q-93 0 -143 -68.5
t-70 -226.5l-63 -485h-281l72 547q4 30 6 53t2 35q0 73 -31.5 109t-93.5 36q-92 0 -141.5 -67t-69.5 -228l-64 -485h-278z" />
    <glyph glyph-name="n" unicode="n" horiz-adv-x="1247" 
d="M39 0l129 981h262l-22 -154q90 97 178 142t186 45q159 0 247.5 -78t88.5 -217q0 -55 -17 -178q-2 -15 -3 -22l-68 -519h-283l72 547q3 29 4.5 50.5t1.5 35.5q0 69 -39 107t-110 38q-124 0 -192.5 -72.5t-88.5 -224.5l-63 -481h-283z" />
    <glyph glyph-name="o" unicode="o" horiz-adv-x="1208" 
d="M604 756q-126 0 -203 -85.5t-77 -224.5q0 -105 57.5 -166t157.5 -61q124 0 202 84t78 219q0 110 -56.5 171t-158.5 63zM602 1014q231 0 368.5 -133t137.5 -357q0 -245 -162 -404t-416 -159q-225 0 -360 132t-135 351q0 250 159.5 410t407.5 160z" />
    <glyph glyph-name="p" unicode="p" horiz-adv-x="1223" 
d="M842 520q0 117 -59 180.5t-167 63.5q-120 0 -191 -92t-71 -250q0 -106 61.5 -170t164.5 -64q122 0 192 89t70 243zM150 981h268l-17 -109q76 71 154 106.5t160 35.5q190 0 296.5 -122.5t106.5 -340.5q0 -263 -129 -427.5t-334 -164.5q-98 0 -183 41t-164 126
q0 -6 0.5 -14.5t0.5 -25.5q0 -18 -1.5 -38t-6.5 -60l-57 -434h-281z" />
    <glyph glyph-name="q" unicode="q" horiz-adv-x="1223" 
d="M801 545q0 114 -60 178.5t-166 64.5q-121 0 -191.5 -90.5t-70.5 -248.5q0 -110 63.5 -174t172.5 -64q112 0 182 92t70 242zM942 -446h-283l58 434v3q13 82 31 130q-54 -80 -132 -120t-180 -40q-189 0 -294 123t-105 344q0 257 133 421.5t338 164.5q107 0 188.5 -44
t137.5 -132l20 143h274z" />
    <glyph glyph-name="r" unicode="r" horiz-adv-x="811" 
d="M39 0l129 981h283l-25 -172q53 101 128.5 153t168.5 52q26 0 47 -2.5t41 -7.5l-55 -283q-31 10 -59.5 15t-55.5 5q-113 0 -179.5 -80.5t-86.5 -242.5l-53 -418h-283z" />
    <glyph glyph-name="s" unicode="s" horiz-adv-x="924" 
d="M141 315q50 -71 112.5 -111t123.5 -40q50 0 81 25.5t31 66.5q0 60 -114 125q-46 26 -72 43q-105 68 -145.5 129.5t-40.5 144.5q0 137 107.5 226.5t275.5 89.5q102 0 193 -40.5t165 -119.5l-168 -152q-54 59 -105.5 88t-101.5 29q-46 0 -75 -24t-29 -62q0 -54 153 -139
q44 -25 68 -39q80 -46 119 -108.5t39 -145.5q0 -150 -106 -244t-275 -94q-116 0 -214.5 46t-187.5 141z" />
    <glyph glyph-name="t" unicode="t" horiz-adv-x="692" 
d="M94 0l101 758h-187l29 223h186l43 326h285l-45 -326h190l-28 -223h-191l-100 -758h-283z" />
    <glyph glyph-name="u" unicode="u" horiz-adv-x="1239" 
d="M442 981l-53 -410q-2 -17 -7 -51q-13 -92 -13 -127q0 -88 45.5 -135t130.5 -47q117 0 173 75.5t87 301.5l51 393h283l-58 -428q-26 -202 -61.5 -297t-97.5 -158q-67 -68 -163.5 -102.5t-219.5 -34.5q-209 0 -332 98.5t-123 264.5q0 39 6.5 110t22.5 189l47 358h282z" />
    <glyph glyph-name="v" unicode="v" horiz-adv-x="1071" 
d="M254 0l-248 981h305l101 -516q9 -57 13.5 -101.5t4.5 -84.5v-23q22 69 42 123t38 92l252 510h325l-530 -981h-303z" />
    <glyph glyph-name="w" unicode="w" horiz-adv-x="1712" 
d="M238 0l-222 981h297l91 -472q9 -50 16.5 -102t13.5 -108q15 40 57 141q12 29 19 45l213 496h287l69 -473q6 -40 11 -86t12 -127q17 56 40.5 116t55.5 128l207 442h315l-514 -981h-268l-76 539q-9 64 -13.5 107.5t-6.5 80.5q-40 -96 -56 -132.5t-26 -57.5l-250 -537h-272z
" />
    <glyph glyph-name="x" unicode="x" 
d="M-109 0l437 514l-287 467h317l95 -189q11 -22 22 -52.5t23 -73.5q29 61 47 93.5t30 49.5l130 172h358l-424 -479l301 -502h-317l-107 205q-11 22 -23 55.5t-24 75.5q-18 -32 -43.5 -76.5t-30.5 -50.5l-153 -209h-351z" />
    <glyph glyph-name="y" unicode="y" horiz-adv-x="1071" 
d="M258 51l-252 930h305l101 -517q7 -33 23 -145q3 -23 5 -36q12 46 29.5 93t40.5 95l252 510h325l-774 -1427h-323z" />
    <glyph glyph-name="z" unicode="z" horiz-adv-x="985" 
d="M-72 0l6 47l433 541q58 73 91.5 106t65.5 56h-456l28 231h887l-6 -45l-455 -569q-50 -64 -75 -91t-50 -45h488l-31 -231h-926z" />
    <glyph glyph-name="braceleft" unicode="{" 
d="M883 1477v-209q-9 0 -25 1t-22 1q-101 0 -136.5 -38.5t-35.5 -162.5v-240q0 -148 -45 -210t-162 -89q117 -27 162 -88t45 -209v-241q0 -123 35 -161t137 -38q6 0 22 1t25 1v-209q-14 0 -39 -1t-37 -1q-100 0 -167 12t-114 37q-57 34 -80.5 91.5t-23.5 199.5v252
q0 137 -51 194.5t-172 57.5q-6 0 -20 -1t-21 -1v209q7 0 21 -1t20 -1q120 0 171.5 58t51.5 196v250q0 143 23.5 201t80.5 92q47 25 114 37t167 12q12 0 37 -1t39 -1z" />
    <glyph glyph-name="bar" unicode="|" 
d="M410 1565h206v-2048h-206v2048z" />
    <glyph glyph-name="braceright" unicode="}" 
d="M143 1477h68q110 0 177 -12t112 -38q57 -32 80.5 -91.5t23.5 -198.5v-252q0 -137 51 -194.5t172 -57.5q6 0 20 1t21 1v-209h-37q-125 0 -176 -56t-51 -194v-252q0 -143 -23.5 -201t-80.5 -90q-47 -25 -114 -37t-167 -12q-12 0 -37 1t-39 1v209q9 0 25 -1t22 -1
q101 0 136.5 38.5t35.5 160.5v239q0 150 45 211.5t162 87.5q-117 27 -162 89t-45 210v242q0 122 -35.5 160.5t-136.5 38.5q-6 0 -22 -1t-25 -1v209z" />
    <glyph glyph-name="asciitilde" unicode="~" horiz-adv-x="1706" 
d="M1530 803v-221q-104 -71 -196.5 -104.5t-182.5 -33.5q-46 0 -92 8t-92 23q-24 8 -71 25q-219 75 -333 75q-85 0 -177.5 -37.5t-207.5 -119.5v221q107 72 204 107.5t183 35.5q117 0 291 -58q3 -1 4 -1q18 -6 55 -19q155 -55 240 -55t175 37t200 117z" />
    <glyph glyph-name="uni00A0" unicode="&#xa0;" horiz-adv-x="1219" 
 />
    <glyph glyph-name="exclamdown" unicode="&#xa1;" horiz-adv-x="657" 
d="M508 1010l-141 -1049h-287l141 1049h287zM575 1327q0 -71 -49 -120.5t-120 -49.5q-72 0 -122.5 49.5t-50.5 120.5t50.5 120.5t122.5 49.5q71 0 120 -49.5t49 -120.5z" />
    <glyph glyph-name="cent" unicode="&#xa2;" horiz-adv-x="1219" 
d="M958 696q-62 52 -120.5 76.5t-120.5 24.5q-136 0 -219.5 -88.5t-83.5 -231.5q0 -110 66.5 -172.5t183.5 -62.5q62 0 130.5 19t145.5 58l-47 -268q-50 -23 -111.5 -36.5t-142.5 -18.5l-29 -234h-110l30 238q-190 32 -297.5 156.5t-107.5 312.5q0 245 146.5 401.5
t396.5 176.5l24 180h111l-27 -187q69 -9 131 -34.5t119 -67.5z" />
    <glyph glyph-name="sterling" unicode="&#xa3;" horiz-adv-x="1219" 
d="M20 141q54 65 112 102t130 54q30 50 43.5 92.5t13.5 83.5q0 25 -5.5 56.5t-16.5 72.5h-203l19 135h147q-31 63 -47 131.5t-16 141.5q0 199 147 334t367 135q211 0 328.5 -114t117.5 -318q0 -27 -0.5 -40.5t-1.5 -23.5h-254v14q0 116 -51 179t-145 63q-103 0 -166.5 -65
t-63.5 -170q0 -80 46 -240q5 -18 7 -26l338 -1l-18 -135h-303q-4 -103 -35 -176.5t-92 -122.5q91 -13 209.5 -65t154.5 -52q37 0 75.5 19.5t119.5 85.5l127 -172q-77 -78 -154 -117t-155 -39q-42 0 -84.5 9.5t-110.5 35.5q-14 6 -43 18q-128 54 -201 54q-61 0 -115 -24.5
t-112 -80.5z" />
    <glyph glyph-name="currency" unicode="&#xa4;" horiz-adv-x="1241" 
d="M623 1161q-113 0 -195 -82t-82 -194q0 -114 81 -194.5t196 -80.5q113 0 194.5 80.5t81.5 194.5q0 112 -81.5 194t-194.5 82zM172 1438l205 -203q54 39 114 58.5t130 19.5t131.5 -19.5t115.5 -58.5l203 203l105 -107l-203 -205q38 -53 57 -113.5t19 -127.5t-19 -127
t-57 -115l203 -205l-105 -104l-203 203q-54 -40 -115 -59t-130 -19q-72 0 -132.5 19t-113.5 59l-205 -203l-104 104l202 205q-38 54 -56.5 113.5t-18.5 128.5q0 67 18.5 127.5t56.5 113.5l-202 205z" />
    <glyph glyph-name="yen" unicode="&#xa5;" horiz-adv-x="1219" 
d="M350 0l88 553h-442l20 154h420l-74 155h-325l20 156h232l-203 434h313l144 -367q25 -62 43.5 -118.5t29.5 -104.5q20 51 49 104t76 126l234 360h336l-314 -434h232l-21 -156h-327l-115 -155h422l-21 -154h-442l-88 -553h-287z" />
    <glyph glyph-name="brokenbar" unicode="&#xa6;" 
d="M410 408h206v-758h-206v758zM410 1432h206v-758h-206v758z" />
    <glyph glyph-name="section" unicode="&#xa7;" horiz-adv-x="1186" 
d="M340 549q0 -89 64 -153t153 -64q90 0 152.5 63t62.5 154t-61.5 152t-153.5 61q-91 0 -154 -62t-63 -151zM295 -13q-3 -18 -3.5 -26t-0.5 -16q0 -82 48 -132.5t126 -50.5q73 0 120.5 40t47.5 102q0 95 -220 225q-50 30 -77 47q-127 78 -184.5 163t-57.5 196
q0 145 83 245.5t233 134.5q-88 49 -130 113t-42 146q0 142 111 232.5t286 90.5q187 0 297 -92.5t110 -249.5q0 -20 -0.5 -30.5t-1.5 -18.5h-247q1 8 1.5 16.5t0.5 26.5q0 79 -41 120.5t-117 41.5q-67 0 -111.5 -38t-44.5 -95q0 -95 246 -232q25 -15 39 -22
q125 -70 188.5 -161t63.5 -200q0 -144 -75.5 -240t-217.5 -133q78 -50 118 -116.5t40 -145.5q0 -159 -119 -259.5t-309 -100.5q-180 0 -289 102.5t-109 272.5q0 18 0.5 27.5t2.5 17.5z" />
    <glyph glyph-name="dieresis" unicode="&#xa8;" 
d="M287 1309q0 51 38.5 89t90.5 38q54 0 91.5 -37t37.5 -90q0 -57 -37 -94t-92 -37t-92 37.5t-37 93.5zM637 1309q0 51 38.5 89t90.5 38q54 0 91.5 -37t37.5 -90q0 -57 -36.5 -94t-92.5 -37q-55 0 -92 37.5t-37 93.5z" />
    <glyph glyph-name="copyright" unicode="&#xa9;" horiz-adv-x="1706" 
d="M1212 897h-188q-8 70 -53 108.5t-119 38.5q-91 0 -143 -81.5t-52 -227.5q0 -147 52 -224t151 -77q73 0 117 42t53 119l193 1q-8 -139 -109 -223t-260 -84q-186 0 -293.5 118t-107.5 322q0 206 109.5 328.5t293.5 122.5q152 0 250.5 -78t105.5 -205zM854 1356
q-128 0 -239.5 -46t-198.5 -134q-89 -90 -136 -203.5t-47 -237.5q0 -125 47 -237t136 -201q88 -88 201 -135t237 -47t237.5 47t204.5 137q88 86 133.5 197t45.5 239q0 126 -46.5 238.5t-134.5 200.5q-89 89 -201 135.5t-239 46.5zM852 1479q152 0 287.5 -56t242.5 -163
q105 -105 160 -240.5t55 -286.5q0 -152 -54.5 -284t-160.5 -236q-111 -108 -248 -165.5t-282 -57.5q-147 0 -280.5 56.5t-241.5 164.5q-107 106 -163 240.5t-56 281.5q0 149 56 284.5t163 244.5q105 106 238 161.5t284 55.5z" />
    <glyph glyph-name="ordfeminine" unicode="&#xaa;" horiz-adv-x="918" 
d="M688 1391l10 84h232l-92 -701h-232l8 55q-32 -41 -85 -62.5t-126 -21.5q-144 0 -226.5 90t-82.5 248q0 182 101 298t258 116q76 0 137 -27.5t98 -78.5zM666 1157q0 79 -42.5 122.5t-119.5 43.5q-83 0 -134 -60t-51 -159q0 -80 44.5 -124t125.5 -44t129 60t48 161z
M119 610h669l-16 -125h-670z" />
    <glyph glyph-name="guillemotleft" unicode="&#xab;" horiz-adv-x="1075" 
d="M492 512l370 428l152 -119l-291 -332l221 -358l-164 -94zM37 512l371 428l151 -119l-291 -332l221 -358l-161 -94z" />
    <glyph glyph-name="logicalnot" unicode="&#xac;" horiz-adv-x="1706" 
d="M254 864h1198v-502h-199v306h-999v196z" />
    <glyph glyph-name="uni00AD" unicode="&#xad;" horiz-adv-x="854" 
d="M90 362l33 252h573l-32 -252h-574z" />
    <glyph glyph-name="registered" unicode="&#xae;" horiz-adv-x="1706" 
d="M745 1034v-239h99q88 0 129 28t41 88q0 63 -44 93t-136 30h-89zM545 1161h323q176 0 264.5 -59.5t88.5 -177.5q0 -82 -48 -140t-133 -79l185 -369h-224l-157 338h-99v-338h-200v825zM854 1356q-127 0 -236 -44.5t-196 -131.5q-91 -91 -140 -206.5t-49 -238.5
q0 -124 46 -235.5t133 -198.5q89 -91 203 -139.5t237 -48.5q120 0 233.5 47t206.5 135q87 84 135 196t48 232q0 133 -44.5 245t-132.5 201q-90 93 -202.5 140t-241.5 47zM852 1479q154 0 290.5 -57.5t243.5 -166.5q103 -104 157 -238t54 -284q0 -152 -56 -287.5t-163 -238.5
q-107 -105 -243.5 -161t-282.5 -56q-149 0 -285 58t-243 167q-104 105 -158.5 238.5t-54.5 279.5q0 102 27 198.5t81 188.5q101 170 267 264.5t366 94.5z" />
    <glyph glyph-name="macron" unicode="&#xaf;" 
d="M295 1229l20 155h574l-21 -155h-573z" />
    <glyph glyph-name="degree" unicode="&#xb0;" horiz-adv-x="674" 
d="M338 1335q-73 0 -124.5 -51t-51.5 -123q0 -74 51 -125t125 -51q72 0 123 52t51 124t-51 123t-123 51zM338 1464q126 0 214.5 -89.5t88.5 -215.5q0 -125 -89 -214t-216 -89q-126 0 -213.5 88t-87.5 215t88.5 216t214.5 89z" />
    <glyph glyph-name="plusminus" unicode="&#xb1;" horiz-adv-x="1706" 
d="M254 197h1198v-199h-1198v199zM752 1223h202v-326h498v-199h-498v-325h-202v325h-498v199h498v326z" />
    <glyph glyph-name="uni00B2" unicode="&#xb2;" horiz-adv-x="805" 
d="M-31 575l6 23l420 371q96 83 136 139.5t40 103.5q0 56 -36 86.5t-103 30.5q-73 0 -117.5 -41.5t-46.5 -111.5h-184q5 136 97 211t255 75q151 0 235.5 -63t84.5 -174q0 -101 -86.5 -206t-337.5 -294h356l-22 -150h-697z" />
    <glyph glyph-name="uni00B3" unicode="&#xb3;" horiz-adv-x="805" 
d="M225 813v-10q0 -48 35.5 -78.5t91.5 -30.5q68 0 111 38.5t43 98.5q0 59 -47 89.5t-141 33.5l20 148h29q80 0 126 32t46 89q0 46 -32.5 73t-88.5 27q-52 0 -85.5 -26t-41.5 -72h-174q15 110 99 173.5t214 63.5q133 0 215 -59.5t82 -155.5q0 -83 -53 -142.5t-148 -82.5
q86 -25 129 -77t43 -132q0 -113 -96.5 -186.5t-249.5 -73.5q-144 0 -224.5 67t-86.5 193h184z" />
    <glyph glyph-name="acute" unicode="&#xb4;" 
d="M879 1477l-367 -351h-141l225 351h283z" />
    <glyph glyph-name="mu" unicode="&#xb5;" horiz-adv-x="1249" 
d="M205 1092h289l-76 -435q-15 -80 -23 -151.5t-8 -116.5q0 -93 42 -138.5t128 -45.5q100 0 155.5 82t92.5 291l90 514h289l-193 -1092h-268l18 117q-42 -78 -93.5 -114t-121.5 -36q-67 0 -119 29.5t-94 91.5l-90 -526h-286z" />
    <glyph glyph-name="paragraph" unicode="&#xb6;" 
d="M983 1479v-111h-113v-1368h-151v1368h-158v-1368h-153v784q-167 6 -267 101t-100 245q0 158 107 253.5t284 95.5h551z" />
    <glyph glyph-name="periodcentered" unicode="&#xb7;" horiz-adv-x="608" 
d="M131 719q0 71 50.5 121.5t121.5 50.5t120.5 -50t49.5 -122q0 -71 -49 -120.5t-121 -49.5t-122 49.5t-50 120.5z" />
    <glyph glyph-name="cedilla" unicode="&#xb8;" 
d="M90 -430l47 123q71 -26 129.5 -37.5t110.5 -11.5q44 0 70 22t26 60q0 39 -38.5 54t-157.5 17l69 203h103l-33 -90h8q109 0 167 -44t58 -126q0 -107 -70 -166t-196 -59q-55 0 -129.5 14t-163.5 41z" />
    <glyph glyph-name="uni00B9" unicode="&#xb9;" horiz-adv-x="805" 
d="M270 575l105 723h-166l22 148h355l-125 -871h-191z" />
    <glyph glyph-name="ordmasculine" unicode="&#xba;" horiz-adv-x="907" 
d="M84 610h700l-16 -125h-700zM526 1300q-90 0 -144 -56.5t-54 -149.5q0 -73 41 -113.5t114 -40.5q89 0 143 56t54 149q0 73 -40.5 114t-113.5 41zM522 1497q180 0 286.5 -95.5t106.5 -256.5q0 -175 -122 -287.5t-316 -112.5q-175 0 -280 95.5t-105 253.5q0 175 121.5 289
t308.5 114z" />
    <glyph glyph-name="guillemotright" unicode="&#xbb;" horiz-adv-x="1075" 
d="M518 463l-371 -426l-151 117l293 333l-221 359l161 94zM975 463l-373 -426l-151 117l290 333l-221 359l164 94z" />
    <glyph glyph-name="onequarter" unicode="&#xbc;" horiz-adv-x="1878" 
d="M1499 0l23 158h-375l18 129l473 524h156l-80 -530h101l-19 -123h-98l-25 -158h-174zM1544 281l37 237q0 1 1 4q8 43 21 94q-11 -14 -36 -46t-37 -46l-213 -243h227zM426 -39l862 1518h162l-860 -1518h-164zM258 633l100 674h-157l20 137h338l-119 -811h-182z" />
    <glyph glyph-name="onehalf" unicode="&#xbd;" horiz-adv-x="1878" 
d="M1081 0l6 23l402 344q89 77 127.5 130.5t38.5 98.5q0 52 -35 80.5t-98 28.5q-70 0 -112 -39t-44 -104h-176q5 126 92.5 195.5t243.5 69.5q143 0 224 -58.5t81 -162.5q0 -94 -82 -192.5t-322 -274.5h340l-20 -139h-666zM426 -39l862 1518h162l-860 -1518h-164zM258 633
l100 674h-157l20 137h338l-119 -811h-182z" />
    <glyph glyph-name="threequarters" unicode="&#xbe;" horiz-adv-x="1878" 
d="M1499 0l23 158h-375l18 129l473 524h156l-80 -530h101l-19 -123h-98l-25 -158h-174zM1544 281l37 237q0 1 1 4q8 43 21 94q-11 -14 -36 -46t-37 -46l-213 -243h227zM426 -39l862 1518h162l-860 -1518h-164zM215 856v-10q0 -46 33.5 -74.5t87.5 -28.5q64 0 105.5 36
t41.5 91q0 56 -45 84.5t-134 30.5l20 139h26q78 0 121 30t43 83q0 44 -30.5 69t-84.5 25q-50 0 -82 -24.5t-41 -67.5h-165q15 103 95 162t204 59q126 0 205 -55.5t79 -144.5q0 -78 -51 -134t-141 -77q83 -24 124.5 -71.5t41.5 -121.5q0 -106 -93 -175t-239 -69
q-138 0 -214 63t-81 181h174z" />
    <glyph glyph-name="questiondown" unicode="&#xbf;" horiz-adv-x="1063" 
d="M813 1327q0 -71 -50 -120.5t-122 -49.5q-71 0 -120.5 49.5t-49.5 120.5t49 120.5t121 49.5t122 -49.5t50 -120.5zM741 1012l-51 -383h-12q-161 0 -253.5 -72t-92.5 -197q0 -75 44.5 -123.5t115.5 -48.5q74 0 124 46.5t68 132.5h262q-18 -187 -147.5 -296.5t-331.5 -109.5
q-188 0 -302 110t-114 291q0 183 106 304t285 143l27 203h272z" />
    <glyph glyph-name="Agrave" unicode="&#xc0;" horiz-adv-x="1470" 
d="M-72 0l758 1464h334l352 -1464h-325l-62 315h-557l-158 -315h-342zM928 555l-70 346q-10 53 -18 128.5t-15 180.5q-22 -80 -47 -148.5t-53 -127.5l-178 -379h381zM902 1622l-275 351h246l158 -351h-129z" />
    <glyph glyph-name="Aacute" unicode="&#xc1;" horiz-adv-x="1470" 
d="M-72 0l758 1464h334l352 -1464h-325l-62 315h-557l-158 -315h-342zM928 555l-70 346q-10 53 -18 128.5t-15 180.5q-22 -80 -47 -148.5t-53 -127.5l-178 -379h381zM1201 1973l-367 -351h-141l225 351h283z" />
    <glyph glyph-name="Acircumflex" unicode="&#xc2;" horiz-adv-x="1470" 
d="M-72 0l758 1464h334l352 -1464h-325l-62 315h-557l-158 -315h-342zM928 555l-70 346q-10 53 -18 128.5t-15 180.5q-22 -80 -47 -148.5t-53 -127.5l-178 -379h381zM1180 1622h-129l-135 189l-225 -189h-142l254 351h254z" />
    <glyph glyph-name="Atilde" unicode="&#xc3;" horiz-adv-x="1470" 
d="M-72 0l758 1464h334l352 -1464h-325l-62 315h-557l-158 -315h-342zM928 555l-70 346q-10 53 -18 128.5t-15 180.5q-22 -80 -47 -148.5t-53 -127.5l-178 -379h381zM1237 1950q-29 -122 -84.5 -181t-140.5 -59q-23 1 -45 4.5t-41 10.5l-61 18q-21 6 -35.5 8t-28.5 2
q-36 0 -60.5 -22.5t-35.5 -65.5h-115q29 123 85 183.5t141 60.5q18 0 40.5 -4t51.5 -12l62 -19q16 -5 30 -7.5t22 -2.5q38 0 61.5 20t39.5 66h114z" />
    <glyph glyph-name="Adieresis" unicode="&#xc4;" horiz-adv-x="1470" 
d="M-72 0l758 1464h334l352 -1464h-325l-62 315h-557l-158 -315h-342zM928 555l-70 346q-10 53 -18 128.5t-15 180.5q-22 -80 -47 -148.5t-53 -127.5l-178 -379h381zM609 1805q0 51 38.5 89t90.5 38q54 0 91.5 -37t37.5 -90q0 -57 -37 -94t-92 -37t-92 37.5t-37 93.5z
M959 1805q0 51 38.5 89t90.5 38q54 0 91.5 -37t37.5 -90q0 -57 -36.5 -94t-92.5 -37q-55 0 -92 37.5t-37 93.5z" />
    <glyph glyph-name="Aring" unicode="&#xc5;" horiz-adv-x="1470" 
d="M733 1712q0 -51 36.5 -88t86.5 -37q51 0 87 36.5t36 88.5t-35.5 87.5t-87.5 35.5q-51 0 -87 -36t-36 -87zM928 555l-70 346q-10 53 -18 128.5t-15 180.5q-22 -80 -47 -148.5t-53 -127.5l-178 -379h381zM-72 0l756 1464h107q-95 20 -147 85t-52 163q0 109 75.5 184.5
t184.5 75.5q108 0 184 -76t76 -184q0 -95 -50 -160t-142 -88h98l354 -1464h-325l-62 315h-557l-158 -315h-342z" />
    <glyph glyph-name="AE" unicode="&#xc6;" horiz-adv-x="1747" 
d="M924 0l-50 315h-507l-158 -315h-326l768 1464h785l55 -258h-492l70 -329h492l53 -252h-490l78 -367h490l55 -258h-823zM836 555l-54 346q-11 75 -18 152t-8 155q-25 -89 -48.5 -156t-48.5 -118l-180 -379h357z" />
    <glyph glyph-name="Ccedilla" unicode="&#xc7;" horiz-adv-x="1446" 
d="M1233 53q-92 -46 -198.5 -69t-227.5 -23q-322 0 -518.5 192t-196.5 504q0 163 55 311t158 265q115 130 274.5 198t348.5 68q134 0 250.5 -33t220.5 -100l-43 -287q-111 80 -216 118t-212 38q-231 0 -378 -158t-147 -405q0 -203 116 -323t312 -120q127 0 235.5 34.5
t201.5 105.5zM481 -430l47 123q71 -26 129.5 -37.5t110.5 -11.5q44 0 70 22t26 60q0 39 -38.5 54t-157.5 17l69 203h103l-33 -90h8q109 0 167 -44t58 -126q0 -107 -70 -166t-196 -59q-55 0 -129.5 14t-163.5 41z" />
    <glyph glyph-name="Egrave" unicode="&#xc8;" horiz-adv-x="1169" 
d="M63 0l193 1464h870l-32 -258h-568l-43 -329h566l-33 -252h-567l-48 -367h568l-35 -258h-871zM730 1622l-275 351h246l158 -351h-129z" />
    <glyph glyph-name="Eacute" unicode="&#xc9;" horiz-adv-x="1169" 
d="M63 0l193 1464h870l-32 -258h-568l-43 -329h566l-33 -252h-567l-48 -367h568l-35 -258h-871zM1029 1973l-367 -351h-141l225 351h283z" />
    <glyph glyph-name="Ecircumflex" unicode="&#xca;" horiz-adv-x="1169" 
d="M63 0l193 1464h870l-32 -258h-568l-43 -329h566l-33 -252h-567l-48 -367h568l-35 -258h-871zM1008 1622h-129l-135 189l-225 -189h-142l254 351h254z" />
    <glyph glyph-name="Edieresis" unicode="&#xcb;" horiz-adv-x="1169" 
d="M63 0l193 1464h870l-32 -258h-568l-43 -329h566l-33 -252h-567l-48 -367h568l-35 -258h-871zM437 1805q0 51 38.5 89t90.5 38q54 0 91.5 -37t37.5 -90q0 -57 -37 -94t-92 -37t-92 37.5t-37 93.5zM787 1805q0 51 38.5 89t90.5 38q54 0 91.5 -37t37.5 -90q0 -57 -36.5 -94
t-92.5 -37q-55 0 -92 37.5t-37 93.5z" />
    <glyph glyph-name="Igrave" unicode="&#xcc;" horiz-adv-x="635" 
d="M68 0l192 1464h307l-192 -1464h-307zM463 1622l-275 351h246l158 -351h-129z" />
    <glyph glyph-name="Iacute" unicode="&#xcd;" horiz-adv-x="635" 
d="M68 0l192 1464h307l-192 -1464h-307zM762 1973l-367 -351h-141l225 351h283z" />
    <glyph glyph-name="Icircumflex" unicode="&#xce;" horiz-adv-x="635" 
d="M68 0l192 1464h307l-192 -1464h-307zM741 1622h-129l-135 189l-225 -189h-142l254 351h254z" />
    <glyph glyph-name="Idieresis" unicode="&#xcf;" horiz-adv-x="635" 
d="M68 0l192 1464h307l-192 -1464h-307zM170 1805q0 51 38.5 89t90.5 38q54 0 91.5 -37t37.5 -90q0 -57 -37 -94t-92 -37t-92 37.5t-37 93.5zM520 1805q0 51 38.5 89t90.5 38q54 0 91.5 -37t37.5 -90q0 -57 -36.5 -94t-92.5 -37q-55 0 -92 37.5t-37 93.5z" />
    <glyph glyph-name="Eth" unicode="&#xd0;" horiz-adv-x="1538" 
d="M424 262h17q105 -4 151 -4q159 0 251 27.5t154 91.5q69 71 104.5 176.5t35.5 237.5q0 217 -91 312t-301 95h-196l-45 -330h325l-28 -206h-324zM84 0l88 662h-197l27 206h197l80 596h305q259 0 367 -16.5t182 -54.5q154 -81 235.5 -240t81.5 -379q0 -213 -73.5 -366
t-229.5 -267q-106 -76 -245.5 -108.5t-432.5 -32.5h-117h-268z" />
    <glyph glyph-name="Ntilde" unicode="&#xd1;" horiz-adv-x="1659" 
d="M63 0l193 1464h319l453 -755q73 -124 104 -187t50 -119q4 104 10 183.5t12 125.5l101 752h288l-194 -1464h-297l-504 852q-47 78 -76 137t-49 113v-47q0 -75 -4 -145t-12 -132l-109 -778h-285zM1310 1950q-29 -122 -84.5 -181t-140.5 -59q-23 1 -45 4.5t-41 10.5l-61 18
q-21 6 -35.5 8t-28.5 2q-36 0 -60.5 -22.5t-35.5 -65.5h-115q29 123 85 183.5t141 60.5q18 0 40.5 -4t51.5 -12l62 -19q16 -5 30 -7.5t22 -2.5q38 0 61.5 20t39.5 66h114z" />
    <glyph glyph-name="Ograve" unicode="&#xd2;" horiz-adv-x="1745" 
d="M909 1233q-218 0 -362 -159.5t-144 -401.5q0 -204 116.5 -324.5t311.5 -120.5q217 0 361.5 162t144.5 402q0 203 -116 322.5t-312 119.5zM815 -39q-329 0 -527 192t-198 511q0 156 56 304t159 265q116 129 275.5 197.5t345.5 68.5q329 0 527 -189.5t198 -502.5
q0 -163 -50.5 -306.5t-146.5 -254.5q-121 -140 -284 -212.5t-355 -72.5zM975 1622l-275 351h246l158 -351h-129z" />
    <glyph glyph-name="Oacute" unicode="&#xd3;" horiz-adv-x="1745" 
d="M909 1233q-218 0 -362 -159.5t-144 -401.5q0 -204 116.5 -324.5t311.5 -120.5q217 0 361.5 162t144.5 402q0 203 -116 322.5t-312 119.5zM815 -39q-329 0 -527 192t-198 511q0 156 56 304t159 265q116 129 275.5 197.5t345.5 68.5q329 0 527 -189.5t198 -502.5
q0 -163 -50.5 -306.5t-146.5 -254.5q-121 -140 -284 -212.5t-355 -72.5zM1274 1973l-367 -351h-141l225 351h283z" />
    <glyph glyph-name="Ocircumflex" unicode="&#xd4;" horiz-adv-x="1745" 
d="M909 1233q-218 0 -362 -159.5t-144 -401.5q0 -204 116.5 -324.5t311.5 -120.5q217 0 361.5 162t144.5 402q0 203 -116 322.5t-312 119.5zM815 -39q-329 0 -527 192t-198 511q0 156 56 304t159 265q116 129 275.5 197.5t345.5 68.5q329 0 527 -189.5t198 -502.5
q0 -163 -50.5 -306.5t-146.5 -254.5q-121 -140 -284 -212.5t-355 -72.5zM1253 1622h-129l-135 189l-225 -189h-142l254 351h254z" />
    <glyph glyph-name="Otilde" unicode="&#xd5;" horiz-adv-x="1745" 
d="M909 1233q-218 0 -362 -159.5t-144 -401.5q0 -204 116.5 -324.5t311.5 -120.5q217 0 361.5 162t144.5 402q0 203 -116 322.5t-312 119.5zM815 -39q-329 0 -527 192t-198 511q0 156 56 304t159 265q116 129 275.5 197.5t345.5 68.5q329 0 527 -189.5t198 -502.5
q0 -163 -50.5 -306.5t-146.5 -254.5q-121 -140 -284 -212.5t-355 -72.5zM1310 1950q-29 -122 -84.5 -181t-140.5 -59q-23 1 -45 4.5t-41 10.5l-61 18q-21 6 -35.5 8t-28.5 2q-36 0 -60.5 -22.5t-35.5 -65.5h-115q29 123 85 183.5t141 60.5q18 0 40.5 -4t51.5 -12l62 -19
q16 -5 30 -7.5t22 -2.5q38 0 61.5 20t39.5 66h114z" />
    <glyph glyph-name="Odieresis" unicode="&#xd6;" horiz-adv-x="1745" 
d="M909 1233q-218 0 -362 -159.5t-144 -401.5q0 -204 116.5 -324.5t311.5 -120.5q217 0 361.5 162t144.5 402q0 203 -116 322.5t-312 119.5zM815 -39q-329 0 -527 192t-198 511q0 156 56 304t159 265q116 129 275.5 197.5t345.5 68.5q329 0 527 -189.5t198 -502.5
q0 -163 -50.5 -306.5t-146.5 -254.5q-121 -140 -284 -212.5t-355 -72.5zM682 1805q0 51 38.5 89t90.5 38q54 0 91.5 -37t37.5 -90q0 -57 -37 -94t-92 -37t-92 37.5t-37 93.5zM1032 1805q0 51 38.5 89t90.5 38q54 0 91.5 -37t37.5 -90q0 -57 -36.5 -94t-92.5 -37
q-55 0 -92 37.5t-37 93.5z" />
    <glyph glyph-name="multiply" unicode="&#xd7;" horiz-adv-x="1706" 
d="M416 1202l450 -450l451 450l141 -139l-450 -453l450 -450l-141 -140l-451 451l-450 -451l-140 140l451 450l-451 453z" />
    <glyph glyph-name="Oslash" unicode="&#xd8;" horiz-adv-x="1745" 
d="M451 426l753 713q-63 49 -134.5 73.5t-154.5 24.5q-227 0 -374.5 -164t-147.5 -416q0 -71 14 -127.5t44 -103.5zM1284 1047l-756 -713q65 -54 142.5 -80.5t171.5 -26.5q214 0 360 163t146 405q0 74 -16 135.5t-48 116.5zM135 -43l-84 98l176 164q-69 100 -103 207.5
t-34 226.5q0 163 55.5 312.5t159.5 269.5q113 129 272.5 196.5t350.5 67.5q154 0 278 -40t211 -118l162 156l84 -96l-158 -150q74 -95 110 -204.5t36 -239.5q0 -164 -51 -309t-146 -254q-119 -140 -281 -211.5t-358 -71.5q-154 0 -279.5 41.5t-222.5 124.5z" />
    <glyph glyph-name="Ugrave" unicode="&#xd9;" horiz-adv-x="1516" 
d="M551 1464l-111 -827q-4 -32 -6 -69t-2 -81q0 -135 66.5 -204.5t193.5 -69.5q90 0 158 36.5t113 108.5q56 92 91 358q2 15 3 21l98 727h303l-108 -823q-27 -203 -61.5 -300.5t-94.5 -172.5q-87 -107 -215 -158t-307 -51q-277 0 -413 125t-136 377q0 36 8.5 122t24.5 212
l88 669h307zM891 1622l-275 351h246l158 -351h-129z" />
    <glyph glyph-name="Uacute" unicode="&#xda;" horiz-adv-x="1516" 
d="M551 1464l-111 -827q-4 -32 -6 -69t-2 -81q0 -135 66.5 -204.5t193.5 -69.5q90 0 158 36.5t113 108.5q56 92 91 358q2 15 3 21l98 727h303l-108 -823q-27 -203 -61.5 -300.5t-94.5 -172.5q-87 -107 -215 -158t-307 -51q-277 0 -413 125t-136 377q0 36 8.5 122t24.5 212
l88 669h307zM1190 1973l-367 -351h-141l225 351h283z" />
    <glyph glyph-name="Ucircumflex" unicode="&#xdb;" horiz-adv-x="1516" 
d="M551 1464l-111 -827q-4 -32 -6 -69t-2 -81q0 -135 66.5 -204.5t193.5 -69.5q90 0 158 36.5t113 108.5q56 92 91 358q2 15 3 21l98 727h303l-108 -823q-27 -203 -61.5 -300.5t-94.5 -172.5q-87 -107 -215 -158t-307 -51q-277 0 -413 125t-136 377q0 36 8.5 122t24.5 212
l88 669h307zM1169 1622h-129l-135 189l-225 -189h-142l254 351h254z" />
    <glyph glyph-name="Udieresis" unicode="&#xdc;" horiz-adv-x="1516" 
d="M551 1464l-111 -827q-4 -32 -6 -69t-2 -81q0 -135 66.5 -204.5t193.5 -69.5q90 0 158 36.5t113 108.5q56 92 91 358q2 15 3 21l98 727h303l-108 -823q-27 -203 -61.5 -300.5t-94.5 -172.5q-87 -107 -215 -158t-307 -51q-277 0 -413 125t-136 377q0 36 8.5 122t24.5 212
l88 669h307zM598 1805q0 51 38.5 89t90.5 38q54 0 91.5 -37t37.5 -90q0 -57 -37 -94t-92 -37t-92 37.5t-37 93.5zM948 1805q0 51 38.5 89t90.5 38q54 0 91.5 -37t37.5 -90q0 -57 -36.5 -94t-92.5 -37q-55 0 -92 37.5t-37 93.5z" />
    <glyph glyph-name="Yacute" unicode="&#xdd;" horiz-adv-x="1186" 
d="M297 0l106 672l-370 792h338l143 -368q18 -46 32 -95t25 -103q19 50 99 178l16 26l232 362h360l-567 -790l-107 -674h-307zM1037 1973l-367 -351h-141l225 351h283z" />
    <glyph glyph-name="Thorn" unicode="&#xde;" horiz-adv-x="1165" 
d="M440 557h47q175 0 237 49t62 170q0 103 -53 145t-205 42h-34zM408 307l-37 -307h-308l193 1464h307l-35 -252h37q262 0 395.5 -106t133.5 -315q0 -122 -43.5 -219t-126.5 -162q-71 -55 -165.5 -79t-281.5 -24h-69z" />
    <glyph glyph-name="germandbls" unicode="&#xdf;" horiz-adv-x="1272" 
d="M39 0l139 1057q34 266 160 388t367 122q212 0 331 -103t119 -286q0 -150 -74.5 -237.5t-218.5 -106.5q143 -31 213 -121.5t70 -245.5q0 -227 -127.5 -360.5t-345.5 -133.5q-56 0 -112.5 9t-110.5 26l10 228q40 -17 77.5 -25t71.5 -8q114 0 185 80t71 209q0 118 -76.5 182
t-222.5 68l34 233q8 -1 19 -1.5t31 -0.5q113 0 172.5 55t59.5 160q0 64 -49 108.5t-121 44.5q-123 0 -181 -76t-86 -288l-131 -977h-274z" />
    <glyph glyph-name="agrave" unicode="&#xe0;" horiz-adv-x="1223" 
d="M801 545q0 114 -60 178.5t-166 64.5q-121 0 -191.5 -90.5t-70.5 -248.5q0 -108 63.5 -172t172.5 -64q113 0 182.5 91t69.5 241zM999 0h-282l16 109q-50 -74 -125 -111t-174 -37q-188 0 -292.5 122.5t-104.5 344.5q0 256 133.5 421t339.5 165q105 0 185 -42.5t134 -127.5
l17 137h282zM686 1126l-275 351h246l158 -351h-129z" />
    <glyph glyph-name="aacute" unicode="&#xe1;" horiz-adv-x="1223" 
d="M801 545q0 114 -60 178.5t-166 64.5q-121 0 -191.5 -90.5t-70.5 -248.5q0 -108 63.5 -172t172.5 -64q113 0 182.5 91t69.5 241zM999 0h-282l16 109q-50 -74 -125 -111t-174 -37q-188 0 -292.5 122.5t-104.5 344.5q0 256 133.5 421t339.5 165q105 0 185 -42.5t134 -127.5
l17 137h282zM985 1477l-367 -351h-141l225 351h283z" />
    <glyph glyph-name="acircumflex" unicode="&#xe2;" horiz-adv-x="1223" 
d="M801 545q0 114 -60 178.5t-166 64.5q-121 0 -191.5 -90.5t-70.5 -248.5q0 -108 63.5 -172t172.5 -64q113 0 182.5 91t69.5 241zM999 0h-282l16 109q-50 -74 -125 -111t-174 -37q-188 0 -292.5 122.5t-104.5 344.5q0 256 133.5 421t339.5 165q105 0 185 -42.5t134 -127.5
l17 137h282zM964 1126h-129l-135 189l-225 -189h-142l254 351h254z" />
    <glyph glyph-name="atilde" unicode="&#xe3;" horiz-adv-x="1223" 
d="M801 545q0 114 -60 178.5t-166 64.5q-121 0 -191.5 -90.5t-70.5 -248.5q0 -108 63.5 -172t172.5 -64q113 0 182.5 91t69.5 241zM999 0h-282l16 109q-50 -74 -125 -111t-174 -37q-188 0 -292.5 122.5t-104.5 344.5q0 256 133.5 421t339.5 165q105 0 185 -42.5t134 -127.5
l17 137h282zM1021 1454q-29 -122 -84.5 -181t-140.5 -59q-23 1 -45 4.5t-41 10.5l-61 18q-21 6 -35.5 8t-28.5 2q-36 0 -60.5 -22.5t-35.5 -65.5h-115q29 123 85 183.5t141 60.5q18 0 40.5 -4t51.5 -12l62 -19q16 -5 30 -7.5t22 -2.5q38 0 61.5 20t39.5 66h114z" />
    <glyph glyph-name="adieresis" unicode="&#xe4;" horiz-adv-x="1223" 
d="M801 545q0 114 -60 178.5t-166 64.5q-121 0 -191.5 -90.5t-70.5 -248.5q0 -108 63.5 -172t172.5 -64q113 0 182.5 91t69.5 241zM999 0h-282l16 109q-50 -74 -125 -111t-174 -37q-188 0 -292.5 122.5t-104.5 344.5q0 256 133.5 421t339.5 165q105 0 185 -42.5t134 -127.5
l17 137h282zM393 1309q0 51 38.5 89t90.5 38q54 0 91.5 -37t37.5 -90q0 -57 -37 -94t-92 -37t-92 37.5t-37 93.5zM743 1309q0 51 38.5 89t90.5 38q54 0 91.5 -37t37.5 -90q0 -57 -36.5 -94t-92.5 -37q-55 0 -92 37.5t-37 93.5z" />
    <glyph glyph-name="aring" unicode="&#xe5;" horiz-adv-x="1223" 
d="M999 0h-282l16 109q-50 -74 -125 -111t-174 -37q-188 0 -292.5 122.5t-104.5 344.5q0 256 133.5 421t339.5 165q105 0 185.5 -43t133.5 -127l17 137h282zM801 545q0 114 -60 178.5t-166 64.5q-121 0 -191.5 -90.5t-70.5 -248.5q0 -108 63.5 -172t172.5 -64
q113 0 182.5 91t69.5 241zM547 1341q0 -52 36.5 -88t88.5 -36t87.5 36t35.5 88q0 53 -35.5 89t-87.5 36t-88.5 -36t-36.5 -89zM406 1341q0 112 76.5 189.5t187.5 77.5t188.5 -77.5t77.5 -189.5t-77 -189t-189 -77t-188 77t-76 189z" />
    <glyph glyph-name="ae" unicode="&#xe6;" horiz-adv-x="1837" 
d="M180 700l39 256q90 28 169 42t151 14q142 0 234 -41t124 -119q72 79 164 118.5t207 39.5q212 0 334 -134.5t122 -367.5q0 -25 -3 -76l-1 -6h-727v-20q0 -104 58.5 -158.5t169.5 -54.5q74 0 134 33.5t109 103.5l185 -160q-71 -104 -182.5 -156.5t-262.5 -52.5
q-122 0 -222.5 44t-160.5 122q-76 -86 -170.5 -126t-220.5 -40q-196 0 -304 85.5t-108 240.5q0 152 113.5 244t304.5 92q95 0 172 -27t131 -78q1 11 3 32q5 66 6 89q0 85 -54.5 124.5t-171.5 39.5q-77 0 -159 -24.5t-183 -78.5zM498 442q-96 0 -147.5 -37.5t-51.5 -107.5
q0 -67 49.5 -103t140.5 -36q107 0 163.5 38t56.5 111q0 68 -52.5 101.5t-158.5 33.5zM1008 592h454q-2 102 -53.5 156.5t-144.5 54.5q-98 0 -161.5 -52.5t-94.5 -158.5z" />
    <glyph glyph-name="ccedilla" unicode="&#xe7;" horiz-adv-x="969" 
d="M868 664q-64 52 -122.5 77t-118.5 25q-136 0 -219.5 -88t-83.5 -232q0 -110 66.5 -173.5t182.5 -63.5q62 0 129 19t148 61l-47 -271q-61 -29 -128 -43t-143 -14q-228 0 -362.5 131t-134.5 352q0 249 158.5 409.5t404.5 160.5q97 0 180.5 -26.5t157.5 -80.5zM153 -430
l47 123q71 -26 129.5 -37.5t110.5 -11.5q44 0 70 22t26 60q0 39 -38.5 54t-157.5 17l69 203h103l-33 -90h8q109 0 167 -44t58 -126q0 -107 -70 -166t-196 -59q-55 0 -129.5 14t-163.5 41z" />
    <glyph glyph-name="egrave" unicode="&#xe8;" horiz-adv-x="1165" 
d="M330 594h462q-1 101 -53 156t-147 55q-101 0 -166.5 -53t-95.5 -158zM315 428v-22q0 -99 62.5 -156t171.5 -57q75 0 133.5 32.5t112.5 104.5l190 -158q-72 -105 -185.5 -158t-264.5 -53q-228 0 -364 132.5t-136 352.5q0 247 157 407.5t396 160.5q221 0 347 -134t126 -370
q0 -24 -4 -77v-5h-742zM652 1126l-275 351h246l158 -351h-129z" />
    <glyph glyph-name="eacute" unicode="&#xe9;" horiz-adv-x="1165" 
d="M330 594h462q-1 101 -53 156t-147 55q-101 0 -166.5 -53t-95.5 -158zM315 428v-22q0 -99 62.5 -156t171.5 -57q75 0 133.5 32.5t112.5 104.5l190 -158q-72 -105 -185.5 -158t-264.5 -53q-228 0 -364 132.5t-136 352.5q0 247 157 407.5t396 160.5q221 0 347 -134t126 -370
q0 -24 -4 -77v-5h-742zM951 1477l-367 -351h-141l225 351h283z" />
    <glyph glyph-name="ecircumflex" unicode="&#xea;" horiz-adv-x="1165" 
d="M330 594h462q-1 101 -53 156t-147 55q-101 0 -166.5 -53t-95.5 -158zM315 428v-22q0 -99 62.5 -156t171.5 -57q75 0 133.5 32.5t112.5 104.5l190 -158q-72 -105 -185.5 -158t-264.5 -53q-228 0 -364 132.5t-136 352.5q0 247 157 407.5t396 160.5q221 0 347 -134t126 -370
q0 -24 -4 -77v-5h-742zM930 1126h-129l-135 189l-225 -189h-142l254 351h254z" />
    <glyph glyph-name="edieresis" unicode="&#xeb;" horiz-adv-x="1165" 
d="M330 594h462q-1 101 -53 156t-147 55q-101 0 -166.5 -53t-95.5 -158zM315 428v-22q0 -99 62.5 -156t171.5 -57q75 0 133.5 32.5t112.5 104.5l190 -158q-72 -105 -185.5 -158t-264.5 -53q-228 0 -364 132.5t-136 352.5q0 247 157 407.5t396 160.5q221 0 347 -134t126 -370
q0 -24 -4 -77v-5h-742zM359 1309q0 51 38.5 89t90.5 38q54 0 91.5 -37t37.5 -90q0 -57 -37 -94t-92 -37t-92 37.5t-37 93.5zM709 1309q0 51 38.5 89t90.5 38q54 0 91.5 -37t37.5 -90q0 -57 -36.5 -94t-92.5 -37q-55 0 -92 37.5t-37 93.5z" />
    <glyph glyph-name="igrave" unicode="&#xec;" horiz-adv-x="571" 
d="M49 0l127 981h283l-127 -981h-283zM355 1126l-275 351h246l158 -351h-129z" />
    <glyph glyph-name="iacute" unicode="&#xed;" horiz-adv-x="571" 
d="M49 0l127 981h283l-127 -981h-283zM654 1477l-367 -351h-141l225 351h283z" />
    <glyph glyph-name="icircumflex" unicode="&#xee;" horiz-adv-x="571" 
d="M49 0l127 981h283l-127 -981h-283zM633 1126h-129l-135 189l-225 -189h-142l254 351h254z" />
    <glyph glyph-name="idieresis" unicode="&#xef;" horiz-adv-x="571" 
d="M49 0l127 981h283l-127 -981h-283zM62 1309q0 51 38.5 89t90.5 38q54 0 91.5 -37t37.5 -90q0 -57 -37 -94t-92 -37t-92 37.5t-37 93.5zM412 1309q0 51 38.5 89t90.5 38q54 0 91.5 -37t37.5 -90q0 -57 -36.5 -94t-92.5 -37q-55 0 -92 37.5t-37 93.5z" />
    <glyph glyph-name="eth" unicode="&#xf0;" horiz-adv-x="1208" 
d="M594 723q-122 0 -197 -79.5t-75 -207.5q0 -99 58 -158t157 -59q125 0 201.5 77.5t76.5 205.5q0 103 -59 162t-162 59zM811 883q-21 82 -47.5 145.5t-58.5 110.5l-318 -72l-41 137l250 58q-28 26 -59.5 51t-65.5 47l164 190q75 -47 140 -102.5t122 -118.5l274 66l39 -140
l-223 -55q64 -122 96.5 -258t32.5 -285q0 -335 -150 -514.5t-431 -179.5q-228 0 -365 129t-137 342q0 233 155.5 385t391.5 152q76 0 132.5 -21.5t98.5 -66.5z" />
    <glyph glyph-name="ntilde" unicode="&#xf1;" horiz-adv-x="1247" 
d="M39 0l129 981h262l-22 -154q90 97 178 142t186 45q159 0 247.5 -78t88.5 -217q0 -55 -17 -178q-2 -15 -3 -22l-68 -519h-283l72 547q3 29 4.5 50.5t1.5 35.5q0 69 -39 107t-110 38q-124 0 -192.5 -72.5t-88.5 -224.5l-63 -481h-283zM1028 1454q-29 -122 -84.5 -181
t-140.5 -59q-23 1 -45 4.5t-41 10.5l-61 18q-21 6 -35.5 8t-28.5 2q-36 0 -60.5 -22.5t-35.5 -65.5h-115q29 123 85 183.5t141 60.5q18 0 40.5 -4t51.5 -12l62 -19q16 -5 30 -7.5t22 -2.5q38 0 61.5 20t39.5 66h114z" />
    <glyph glyph-name="ograve" unicode="&#xf2;" horiz-adv-x="1208" 
d="M604 756q-126 0 -203 -85.5t-77 -224.5q0 -105 57.5 -166t157.5 -61q124 0 202 84t78 219q0 110 -56.5 171t-158.5 63zM602 1014q231 0 368.5 -133t137.5 -357q0 -245 -162 -404t-416 -159q-225 0 -360 132t-135 351q0 250 159.5 410t407.5 160zM656 1126l-275 351h246
l158 -351h-129z" />
    <glyph glyph-name="oacute" unicode="&#xf3;" horiz-adv-x="1208" 
d="M604 756q-126 0 -203 -85.5t-77 -224.5q0 -105 57.5 -166t157.5 -61q124 0 202 84t78 219q0 110 -56.5 171t-158.5 63zM602 1014q231 0 368.5 -133t137.5 -357q0 -245 -162 -404t-416 -159q-225 0 -360 132t-135 351q0 250 159.5 410t407.5 160zM955 1477l-367 -351h-141
l225 351h283z" />
    <glyph glyph-name="ocircumflex" unicode="&#xf4;" horiz-adv-x="1208" 
d="M604 756q-126 0 -203 -85.5t-77 -224.5q0 -105 57.5 -166t157.5 -61q124 0 202 84t78 219q0 110 -56.5 171t-158.5 63zM602 1014q231 0 368.5 -133t137.5 -357q0 -245 -162 -404t-416 -159q-225 0 -360 132t-135 351q0 250 159.5 410t407.5 160zM934 1126h-129l-135 189
l-225 -189h-142l254 351h254z" />
    <glyph glyph-name="otilde" unicode="&#xf5;" horiz-adv-x="1208" 
d="M604 756q-126 0 -203 -85.5t-77 -224.5q0 -105 57.5 -166t157.5 -61q124 0 202 84t78 219q0 110 -56.5 171t-158.5 63zM602 1014q231 0 368.5 -133t137.5 -357q0 -245 -162 -404t-416 -159q-225 0 -360 132t-135 351q0 250 159.5 410t407.5 160zM991 1454
q-29 -122 -84.5 -181t-140.5 -59q-23 1 -45 4.5t-41 10.5l-61 18q-21 6 -35.5 8t-28.5 2q-36 0 -60.5 -22.5t-35.5 -65.5h-115q29 123 85 183.5t141 60.5q18 0 40.5 -4t51.5 -12l62 -19q16 -5 30 -7.5t22 -2.5q38 0 61.5 20t39.5 66h114z" />
    <glyph glyph-name="odieresis" unicode="&#xf6;" horiz-adv-x="1208" 
d="M604 756q-126 0 -203 -85.5t-77 -224.5q0 -105 57.5 -166t157.5 -61q124 0 202 84t78 219q0 110 -56.5 171t-158.5 63zM602 1014q231 0 368.5 -133t137.5 -357q0 -245 -162 -404t-416 -159q-225 0 -360 132t-135 351q0 250 159.5 410t407.5 160zM363 1309q0 51 38.5 89
t90.5 38q54 0 91.5 -37t37.5 -90q0 -57 -37 -94t-92 -37t-92 37.5t-37 93.5zM713 1309q0 51 38.5 89t90.5 38q54 0 91.5 -37t37.5 -90q0 -57 -36.5 -94t-92.5 -37q-55 0 -92 37.5t-37 93.5z" />
    <glyph glyph-name="divide" unicode="&#xf7;" horiz-adv-x="1706" 
d="M854 369q62 0 107 -45t45 -107q0 -61 -45 -105t-107 -44q-63 0 -107.5 43t-44.5 106t44.5 107.5t107.5 44.5zM254 711h1198v-199h-1198v199zM854 1155q62 0 107 -44.5t45 -106.5q0 -63 -44.5 -107.5t-107.5 -44.5t-107.5 44.5t-44.5 107.5t44.5 107t107.5 44z" />
    <glyph glyph-name="oslash" unicode="&#xf8;" horiz-adv-x="1208" 
d="M70 -63l-78 88l131 122q-45 65 -66.5 139.5t-21.5 162.5q0 246 162 406.5t411 160.5q99 0 182 -26t144 -77l125 121l78 -88l-123 -115q47 -64 70.5 -139t23.5 -164q0 -249 -160 -407t-416 -158q-99 0 -180 24.5t-147 73.5zM332 342l409 387q-26 21 -58 32t-69 11
q-139 0 -219 -92t-80 -252q0 -17 4 -37.5t13 -48.5zM809 639l-412 -389q29 -21 65.5 -32t78.5 -11q129 0 207.5 89.5t78.5 238.5q0 33 -4 57.5t-14 46.5z" />
    <glyph glyph-name="ugrave" unicode="&#xf9;" horiz-adv-x="1239" 
d="M442 981l-53 -410q-2 -17 -7 -51q-13 -92 -13 -127q0 -88 45.5 -135t130.5 -47q117 0 173 75.5t87 301.5l51 393h283l-58 -428q-26 -202 -61.5 -297t-97.5 -158q-67 -68 -163.5 -102.5t-219.5 -34.5q-209 0 -332 98.5t-123 264.5q0 39 6.5 110t22.5 189l47 358h282z
M695 1126l-275 351h246l158 -351h-129z" />
    <glyph glyph-name="uacute" unicode="&#xfa;" horiz-adv-x="1239" 
d="M442 981l-53 -410q-2 -17 -7 -51q-13 -92 -13 -127q0 -88 45.5 -135t130.5 -47q117 0 173 75.5t87 301.5l51 393h283l-58 -428q-26 -202 -61.5 -297t-97.5 -158q-67 -68 -163.5 -102.5t-219.5 -34.5q-209 0 -332 98.5t-123 264.5q0 39 6.5 110t22.5 189l47 358h282z
M994 1477l-367 -351h-141l225 351h283z" />
    <glyph glyph-name="ucircumflex" unicode="&#xfb;" horiz-adv-x="1239" 
d="M442 981l-53 -410q-2 -17 -7 -51q-13 -92 -13 -127q0 -88 45.5 -135t130.5 -47q117 0 173 75.5t87 301.5l51 393h283l-58 -428q-26 -202 -61.5 -297t-97.5 -158q-67 -68 -163.5 -102.5t-219.5 -34.5q-209 0 -332 98.5t-123 264.5q0 39 6.5 110t22.5 189l47 358h282z
M973 1126h-129l-135 189l-225 -189h-142l254 351h254z" />
    <glyph glyph-name="udieresis" unicode="&#xfc;" horiz-adv-x="1239" 
d="M442 981l-53 -410q-2 -17 -7 -51q-13 -92 -13 -127q0 -88 45.5 -135t130.5 -47q117 0 173 75.5t87 301.5l51 393h283l-58 -428q-26 -202 -61.5 -297t-97.5 -158q-67 -68 -163.5 -102.5t-219.5 -34.5q-209 0 -332 98.5t-123 264.5q0 39 6.5 110t22.5 189l47 358h282z
M402 1309q0 51 38.5 89t90.5 38q54 0 91.5 -37t37.5 -90q0 -57 -37 -94t-92 -37t-92 37.5t-37 93.5zM752 1309q0 51 38.5 89t90.5 38q54 0 91.5 -37t37.5 -90q0 -57 -36.5 -94t-92.5 -37q-55 0 -92 37.5t-37 93.5z" />
    <glyph glyph-name="yacute" unicode="&#xfd;" horiz-adv-x="1071" 
d="M258 51l-252 930h305l101 -517q7 -33 23 -145q3 -23 5 -36q12 46 29.5 93t40.5 95l252 510h325l-774 -1427h-323zM904 1477l-367 -351h-141l225 351h283z" />
    <glyph glyph-name="thorn" unicode="&#xfe;" horiz-adv-x="1223" 
d="M842 520q0 117 -59 180.5t-167 63.5q-120 0 -191 -92t-71 -250q0 -106 61.5 -170t164.5 -64q122 0 192 89t70 243zM308 126q0 -6 0.5 -14.5t0.5 -23.5q0 -25 -3.5 -58.5t-4.5 -41.5l-57 -434h-281l260 1996h283l-74 -569v-3q-9 -68 -31 -106q77 72 156.5 108t161.5 36
q185 0 292 -124t107 -341q0 -264 -128.5 -428t-334.5 -164q-99 0 -184.5 41.5t-162.5 125.5z" />
    <glyph glyph-name="ydieresis" unicode="&#xff;" horiz-adv-x="1071" 
d="M258 51l-252 930h305l101 -517q7 -33 23 -145q3 -23 5 -36q12 46 29.5 93t40.5 95l252 510h325l-774 -1427h-323zM312 1309q0 51 38.5 89t90.5 38q54 0 91.5 -37t37.5 -90q0 -57 -37 -94t-92 -37t-92 37.5t-37 93.5zM662 1309q0 51 38.5 89t90.5 38q54 0 91.5 -37
t37.5 -90q0 -57 -36.5 -94t-92.5 -37q-55 0 -92 37.5t-37 93.5z" />
    <glyph glyph-name="Cacute" unicode="&#x106;" horiz-adv-x="1446" 
d="M1233 53q-92 -46 -198.5 -69t-227.5 -23q-322 0 -518.5 192t-196.5 504q0 163 55 311t158 265q115 130 274.5 198t348.5 68q134 0 250.5 -33t220.5 -100l-43 -287q-111 80 -216 118t-212 38q-231 0 -378 -158t-147 -405q0 -203 116 -323t312 -120q127 0 235.5 34.5
t201.5 105.5zM1258 1973l-367 -351h-141l225 351h283z" />
    <glyph glyph-name="cacute" unicode="&#x107;" horiz-adv-x="969" 
d="M868 664q-64 52 -122.5 77t-118.5 25q-136 0 -219.5 -88t-83.5 -232q0 -110 66.5 -173.5t182.5 -63.5q62 0 129 19t148 61l-47 -271q-61 -29 -128 -43t-143 -14q-228 0 -362.5 131t-134.5 352q0 249 158.5 409.5t404.5 160.5q97 0 180.5 -26.5t157.5 -80.5zM932 1477
l-367 -351h-141l225 351h283z" />
    <glyph glyph-name="Ccaron" unicode="&#x10c;" horiz-adv-x="1446" 
d="M1233 53q-92 -46 -198.5 -69t-227.5 -23q-322 0 -518.5 192t-196.5 504q0 163 55 311t158 265q115 130 274.5 198t348.5 68q134 0 250.5 -33t220.5 -100l-43 -287q-111 80 -216 118t-212 38q-231 0 -378 -158t-147 -405q0 -203 116 -323t312 -120q127 0 235.5 34.5
t201.5 105.5zM690 1973h133l125 -170l205 170h148l-252 -351h-236z" />
    <glyph glyph-name="ccaron" unicode="&#x10d;" horiz-adv-x="969" 
d="M868 664q-64 52 -122.5 77t-118.5 25q-136 0 -219.5 -88t-83.5 -232q0 -110 66.5 -173.5t182.5 -63.5q62 0 129 19t148 61l-47 -271q-61 -29 -128 -43t-143 -14q-228 0 -362.5 131t-134.5 352q0 249 158.5 409.5t404.5 160.5q97 0 180.5 -26.5t157.5 -80.5zM364 1477h133
l125 -170l205 170h148l-252 -351h-236z" />
    <glyph glyph-name="dcroat" unicode="&#x111;" horiz-adv-x="1233" 
d="M578 770q-120 0 -192.5 -89t-72.5 -239q0 -104 64 -166.5t172 -62.5q110 0 181 87t71 224q0 118 -58.5 182t-164.5 64zM1178 1335h229l-25 -190h-231l-150 -1145h-282l14 109q-50 -74 -124 -110t-175 -36q-189 0 -293 122t-104 343q0 247 132.5 406t338.5 159
q104 0 184 -43t142 -133q1 57 3 87.5t5 50.5l26 190h-348l25 190h348l29 215h282z" />
    <glyph glyph-name="Gbreve" unicode="&#x11e;" horiz-adv-x="1657" 
d="M1286 1018q-64 107 -161 164t-216 57q-219 0 -362.5 -161.5t-143.5 -407.5q0 -203 118 -323t315 -120q136 0 237.5 74.5t147.5 208.5h-347l33 256h664q-23 -384 -220 -594.5t-532 -210.5q-332 0 -529.5 191.5t-197.5 513.5q0 158 56.5 309t160.5 270q106 123 261 187.5
t343 64.5q213 0 365 -77t246 -232zM707 1958h120v-12q0 -70 37 -103.5t113 -33.5q83 0 138.5 37t84.5 112h127q-41 -151 -133.5 -228t-233.5 -77q-127 0 -191.5 66t-64.5 196q0 18 0.5 26.5t2.5 16.5z" />
    <glyph glyph-name="gbreve" unicode="&#x11f;" horiz-adv-x="1223" 
d="M801 561q0 110 -59 172t-164 62q-123 0 -194 -87.5t-71 -240.5q0 -102 63 -164.5t165 -62.5q119 0 189.5 87t70.5 234zM854 981h274l-104 -807q-1 -10 -4 -30q-43 -332 -121 -431q-65 -81 -171.5 -120t-262.5 -39q-217 0 -333 86t-136 262l260 24q17 -80 71.5 -119.5
t147.5 -39.5q138 0 199.5 85.5t70.5 299.5q-55 -77 -131 -114.5t-178 -37.5q-190 0 -294.5 117.5t-104.5 331.5q0 247 133 406t338 159q106 0 188 -43t138 -127zM414 1462h120v-12q0 -70 37 -103.5t113 -33.5q83 0 138.5 37t84.5 112h127q-41 -151 -133.5 -228t-233.5 -77
q-127 0 -191.5 66t-64.5 196q0 18 0.5 26.5t2.5 16.5z" />
    <glyph glyph-name="Idotaccent" unicode="&#x130;" horiz-adv-x="635" 
d="M68 0l192 1464h307l-192 -1464h-307zM338 1805q0 53 41.5 93t95.5 40q55 0 94 -39t39 -94q0 -59 -37.5 -98.5t-95.5 -39.5q-57 0 -97 40.5t-40 97.5z" />
    <glyph glyph-name="dotlessi" unicode="&#x131;" horiz-adv-x="571" 
d="M49 0l127 981h283l-127 -981h-283z" />
    <glyph glyph-name="Lslash" unicode="&#x141;" horiz-adv-x="1026" 
d="M90 0l76 569l-152 -88l-94 187l279 159l84 637h305l-62 -479l219 127l109 -180l-360 -205l-64 -467h506l-33 -260h-813z" />
    <glyph glyph-name="lslash" unicode="&#x142;" horiz-adv-x="629" 
d="M76 0l76 569l-123 -71l-95 164l248 145l99 743h282l-80 -610l121 72l96 -164l-249 -143l-93 -705h-282z" />
    <glyph glyph-name="OE" unicode="&#x152;" horiz-adv-x="2329" 
d="M1239 0l29 166q-77 -103 -194 -155t-273 -52q-321 0 -516 193.5t-195 511.5q0 157 56 305.5t159 265.5q116 132 268.5 198t339.5 66q169 0 286.5 -53.5t191.5 -163.5l22 182h871l-33 -258h-568l-45 -329h568l-33 -252h-567l-47 -367h567l-35 -258h-852zM911 1241
q-220 0 -366 -162t-146 -407q0 -208 117.5 -330.5t314.5 -122.5q219 0 365.5 164t146.5 410q0 205 -116.5 326.5t-315.5 121.5z" />
    <glyph glyph-name="oe" unicode="&#x153;" horiz-adv-x="1939" 
d="M1098 592h462q-1 100 -54 155.5t-148 55.5q-99 0 -164 -53t-96 -158zM1083 426v-23q0 -98 62.5 -154t171.5 -56q75 0 134.5 33t111.5 104l190 -160q-72 -105 -187 -157t-276 -52q-116 0 -209.5 42.5t-152.5 121.5q-69 -83 -167.5 -123.5t-232.5 -40.5
q-226 0 -359.5 131.5t-133.5 351.5q0 251 160.5 409.5t412.5 158.5q135 0 226.5 -41.5t144.5 -126.5q76 83 168.5 125.5t200.5 42.5q226 0 353.5 -133.5t127.5 -370.5q0 -24 -4 -77v-5h-742zM610 762q-128 0 -207 -88t-79 -230q0 -105 59.5 -167t161.5 -62q127 0 205.5 85.5
t78.5 223.5q0 111 -58 174.5t-161 63.5z" />
    <glyph glyph-name="Scedilla" unicode="&#x15e;" horiz-adv-x="1049" 
d="M154 393q52 -90 120 -133t160 -43q98 0 153.5 53t55.5 146q0 60 -32 107t-97 83q-16 9 -47 26q-180 98 -242 167q-45 51 -68.5 116.5t-23.5 141.5q0 189 136 315.5t343 126.5q125 0 222 -46.5t165 -139.5l-157 -203q-39 73 -96 109t-132 36q-85 0 -140.5 -49t-55.5 -125
q0 -99 182 -202q35 -20 53 -31q165 -97 224 -190t59 -240q0 -205 -138.5 -331t-367.5 -126q-139 0 -248 55t-194 168zM102 -430l47 123q71 -26 129.5 -37.5t110.5 -11.5q44 0 70 22t26 60q0 39 -38.5 54t-157.5 17l69 203h103l-33 -90h8q109 0 167 -44t58 -126
q0 -107 -70 -166t-196 -59q-55 0 -129.5 14t-163.5 41z" />
    <glyph glyph-name="scedilla" unicode="&#x15f;" horiz-adv-x="924" 
d="M141 315q50 -71 112.5 -111t123.5 -40q50 0 81 25.5t31 66.5q0 60 -114 125q-46 26 -72 43q-105 68 -145.5 129.5t-40.5 144.5q0 137 107.5 226.5t275.5 89.5q102 0 193 -40.5t165 -119.5l-168 -152q-54 59 -105.5 88t-101.5 29q-46 0 -75 -24t-29 -62q0 -54 153 -139
q44 -25 68 -39q80 -46 119 -108.5t39 -145.5q0 -150 -106 -244t-275 -94q-116 0 -214.5 46t-187.5 141zM41 -430l47 123q71 -26 129.5 -37.5t110.5 -11.5q44 0 70 22t26 60q0 39 -38.5 54t-157.5 17l69 203h103l-33 -90h8q109 0 167 -44t58 -126q0 -107 -70 -166t-196 -59
q-55 0 -129.5 14t-163.5 41z" />
    <glyph glyph-name="Scaron" unicode="&#x160;" horiz-adv-x="1049" 
d="M154 393q52 -90 120 -133t160 -43q98 0 153.5 53t55.5 146q0 60 -32 107t-97 83q-16 9 -47 26q-180 98 -242 167q-45 51 -68.5 116.5t-23.5 141.5q0 189 136 315.5t343 126.5q125 0 222 -46.5t165 -139.5l-157 -203q-39 73 -96 109t-132 36q-85 0 -140.5 -49t-55.5 -125
q0 -99 182 -202q35 -20 53 -31q165 -97 224 -190t59 -240q0 -205 -138.5 -331t-367.5 -126q-139 0 -248 55t-194 168zM401 1973h133l125 -170l205 170h148l-252 -351h-236z" />
    <glyph glyph-name="scaron" unicode="&#x161;" horiz-adv-x="924" 
d="M141 315q50 -71 112.5 -111t123.5 -40q50 0 81 25.5t31 66.5q0 60 -114 125q-46 26 -72 43q-105 68 -145.5 129.5t-40.5 144.5q0 137 107.5 226.5t275.5 89.5q102 0 193 -40.5t165 -119.5l-168 -152q-54 59 -105.5 88t-101.5 29q-46 0 -75 -24t-29 -62q0 -54 153 -139
q44 -25 68 -39q80 -46 119 -108.5t39 -145.5q0 -150 -106 -244t-275 -94q-116 0 -214.5 46t-187.5 141zM262 1477h133l125 -170l205 170h148l-252 -351h-236z" />
    <glyph glyph-name="Ydieresis" unicode="&#x178;" horiz-adv-x="1186" 
d="M297 0l106 672l-370 792h338l143 -368q18 -46 32 -95t25 -103q19 50 99 178l16 26l232 362h360l-567 -790l-107 -674h-307zM445 1805q0 51 38.5 89t90.5 38q54 0 91.5 -37t37.5 -90q0 -57 -37 -94t-92 -37t-92 37.5t-37 93.5zM795 1805q0 51 38.5 89t90.5 38
q54 0 91.5 -37t37.5 -90q0 -57 -36.5 -94t-92.5 -37q-55 0 -92 37.5t-37 93.5z" />
    <glyph glyph-name="Zcaron" unicode="&#x17d;" horiz-adv-x="1204" 
d="M-80 0v35l838 1188h-627l39 241h1083v-28l-831 -1190h682l-39 -246h-1145zM479 1973h133l125 -170l205 170h148l-252 -351h-236z" />
    <glyph glyph-name="zcaron" unicode="&#x17e;" horiz-adv-x="985" 
d="M-72 0l6 47l433 541q58 73 91.5 106t65.5 56h-456l28 231h887l-6 -45l-455 -569q-50 -64 -75 -91t-50 -45h488l-31 -231h-926zM293 1477h133l125 -170l205 170h148l-252 -351h-236z" />
    <glyph glyph-name="florin" unicode="&#x192;" horiz-adv-x="1219" 
d="M940 737h-203l-88 -712q-33 -270 -115.5 -373t-254.5 -103q-44 0 -83 11.5t-75 33.5l45 205q23 -10 43 -15t37 -5q68 0 98 49t53 258l74 651h-186l18 211h195l18 152q24 197 96.5 288t206.5 91q49 0 100 -10.5t105 -30.5l-18 -203q-34 17 -60 25t-47 8q-56 0 -83 -40.5
t-42 -170.5l-14 -109h203z" />
    <glyph glyph-name="circumflex" unicode="&#x2c6;" 
d="M858 1126h-129l-135 189l-225 -189h-142l254 351h254z" />
    <glyph glyph-name="caron" unicode="&#x2c7;" 
d="M311 1477h133l125 -170l205 170h148l-252 -351h-236z" />
    <glyph glyph-name="breve" unicode="&#x2d8;" 
d="M314 1462h120v-12q0 -70 37 -103.5t113 -33.5q83 0 138.5 37t84.5 112h127q-41 -151 -133.5 -228t-233.5 -77q-127 0 -191.5 66t-64.5 196q0 18 0.5 26.5t2.5 16.5z" />
    <glyph glyph-name="dotaccent" unicode="&#x2d9;" 
d="M455 1309q0 53 41.5 93t95.5 40q55 0 94 -39t39 -94q0 -59 -37.5 -98.5t-95.5 -39.5q-57 0 -97 40.5t-40 97.5z" />
    <glyph glyph-name="ring" unicode="&#x2da;" 
d="M477 1370q0 -54 37.5 -90.5t93.5 -36.5q54 0 90.5 36.5t36.5 90.5q0 55 -36.5 93t-90.5 38q-55 0 -93 -38t-38 -93zM342 1372q0 112 76.5 189t187.5 77q112 0 189 -77.5t77 -188.5q0 -112 -77 -189t-189 -77q-111 0 -187.5 77t-76.5 189z" />
    <glyph glyph-name="ogonek" unicode="&#x2db;" 
d="M496 0q-64 -52 -96.5 -103.5t-32.5 -101.5q0 -39 21 -59.5t63 -20.5h108l-22 -174h-91q-118 0 -178.5 47t-60.5 138q0 71 45 136t145 138h99z" />
    <glyph glyph-name="tilde" unicode="&#x2dc;" 
d="M915 1454q-29 -122 -84.5 -181t-140.5 -59q-23 1 -45 4.5t-41 10.5l-61 18q-21 6 -35.5 8t-28.5 2q-36 0 -60.5 -22.5t-35.5 -65.5h-115q29 123 85 183.5t141 60.5q18 0 40.5 -4t51.5 -12l62 -19q16 -5 30 -7.5t22 -2.5q38 0 61.5 20t39.5 66h114z" />
    <glyph glyph-name="hungarumlaut" unicode="&#x2dd;" 
d="M618 1126l191 351h254l-332 -351h-113zM332 1126l145 351h242l-295 -351h-92z" />
    <glyph glyph-name="uni03A9" unicode="&#x3a9;" horiz-adv-x="1575" 
d="M1227 256h291v-256h-609v291q126 86 192 217.5t66 296.5q0 203 -101.5 319.5t-279.5 116.5q-177 0 -278.5 -116.5t-101.5 -319.5q0 -164 66 -296.5t192 -217.5v-291h-609v256h291q-126 121 -187 260t-61 303q0 313 188 501.5t500 188.5q313 0 501 -188.5t188 -501.5
q0 -164 -61 -303t-187 -260z" />
    <glyph glyph-name="pi" unicode="&#x3c0;" horiz-adv-x="1319" 
d="M1354 1092l-39 -224h-176l-154 -868h-287l152 868h-238l-151 -868h-287l152 868h-25q-55 0 -84 -31t-39 -99l-213 -1q30 200 123 277.5t311 77.5h955z" />
    <glyph glyph-name="endash" unicode="&#x2013;" 
d="M-47 393l24 191h1024l-24 -191h-1024z" />
    <glyph glyph-name="emdash" unicode="&#x2014;" horiz-adv-x="2048" 
d="M-47 393l24 191h2048l-24 -191h-2048z" />
    <glyph glyph-name="quoteleft" unicode="&#x2018;" horiz-adv-x="608" 
d="M471 1464h207l-348 -612h-314z" />
    <glyph glyph-name="quoteright" unicode="&#x2019;" horiz-adv-x="608" 
d="M225 852h-207l349 612h313z" />
    <glyph glyph-name="quotesinglbase" unicode="&#x201a;" horiz-adv-x="608" 
d="M20 -317h-206l350 612h311z" />
    <glyph glyph-name="quotedblleft" unicode="&#x201c;" horiz-adv-x="1126" 
d="M995 1464h209l-350 -612h-313zM477 1464h207l-348 -612h-313z" />
    <glyph glyph-name="quotedblright" unicode="&#x201d;" horiz-adv-x="1126" 
d="M748 852h-209l350 612h313zM227 852h-207l349 612h313z" />
    <glyph glyph-name="quotedblbase" unicode="&#x201e;" horiz-adv-x="1126" 
d="M23 -317h-209l350 612h313zM541 -317h-207l348 612h313z" />
    <glyph glyph-name="dagger" unicode="&#x2020;" horiz-adv-x="1186" 
d="M309 -446l154 1165h-383l33 242h381l67 503h268l-67 -503h371l-31 -242h-373l-151 -1165h-269z" />
    <glyph glyph-name="daggerdbl" unicode="&#x2021;" horiz-adv-x="1186" 
d="M309 -446l58 428h-371l31 237h370l78 590h-371l31 233h371l55 422h254l-55 -422h370l-30 -233h-371l-78 -590h371l-31 -237h-370l-58 -428h-254z" />
    <glyph glyph-name="bullet" unicode="&#x2022;" horiz-adv-x="1208" 
d="M307 762q0 123 87 209t210 86q122 0 208.5 -86.5t86.5 -208.5t-87.5 -209.5t-209.5 -87.5q-123 0 -209 87t-86 210z" />
    <glyph glyph-name="ellipsis" unicode="&#x2026;" horiz-adv-x="2048" 
d="M90 143q0 72 50.5 123t121.5 51t121.5 -51t50.5 -123q0 -71 -50 -120.5t-122 -49.5t-122 49.5t-50 120.5zM772 143q0 72 50.5 123t121.5 51t121.5 -51t50.5 -123q0 -71 -50 -120.5t-122 -49.5t-122 49.5t-50 120.5zM1456 143q0 72 50.5 123t121.5 51t121.5 -51t50.5 -123
q0 -71 -50 -120.5t-122 -49.5t-122 49.5t-50 120.5z" />
    <glyph glyph-name="perthousand" unicode="&#x2030;" horiz-adv-x="2347" 
d="M430 1341q-62 0 -109 -92t-47 -221q0 -92 22.5 -132t74.5 -40q61 0 106 98t45 242q0 74 -22.5 109.5t-69.5 35.5zM436 1483q144 0 216.5 -82.5t72.5 -247.5q0 -190 -106 -315t-267 -125q-136 0 -208 81.5t-72 235.5q0 199 102 326t262 127zM1989 588q-62 0 -108 -92
t-46 -222q0 -93 22 -132.5t72 -39.5q61 0 106.5 99t45.5 243q0 74 -22.5 109t-69.5 35zM1630 279q0 199 102.5 324.5t262.5 125.5q144 0 216.5 -82t72.5 -246q0 -191 -106.5 -316.5t-266.5 -125.5q-136 0 -208.5 82.5t-72.5 237.5zM1231 588q-62 0 -109 -92.5t-47 -221.5
q0 -92 22.5 -132t73.5 -40q61 0 106.5 99t45.5 243q0 74 -22.5 109t-69.5 35zM870 279q0 198 103 324t264 126q143 0 215 -82t72 -246q0 -191 -105.5 -316.5t-265.5 -125.5q-136 0 -209.5 83t-73.5 237zM307 -39l826 1518h149l-823 -1518h-152z" />
    <glyph glyph-name="guilsinglleft" unicode="&#x2039;" horiz-adv-x="618" 
d="M37 512l371 428l151 -119l-291 -332l221 -358l-161 -94z" />
    <glyph glyph-name="guilsinglright" unicode="&#x203a;" horiz-adv-x="618" 
d="M516 463l-371 -426l-151 117l291 333l-222 359l162 94z" />
    <glyph glyph-name="franc" unicode="&#x20a3;" horiz-adv-x="1960" 
d="M63 0l193 1464h870l-32 -258h-566l-43 -329h564l-33 -252h-563l-82 -625h-308zM1188 0l129 981h283l-25 -172q53 101 128.5 153t168.5 52q26 0 47 -2.5t41 -7.5l-55 -283q-31 10 -59.5 15t-55.5 5q-113 0 -179.5 -80.5t-86.5 -242.5l-53 -418h-283z" />
    <glyph glyph-name="trademark" unicode="&#x2122;" horiz-adv-x="1706" 
d="M803 1462h196l127 -332l123 332h197v-547h-135v410l-154 -410h-61l-158 410v-410h-135v547zM207 1462h485v-112h-168v-435h-149v435h-168v112z" />
    <glyph glyph-name="partialdiff" unicode="&#x2202;" horiz-adv-x="1094" 
d="M762 662q19 99 29 188.5t10 155.5q0 100 -26 157.5t-70 57.5t-146 -73t-160 -73q-42 0 -71 30t-29 73q0 64 86.5 118t210.5 54q192 0 309 -161.5t117 -432.5q0 -339 -156.5 -560t-396.5 -221q-171 0 -282 114.5t-111 291.5q0 198 116 329.5t287 131.5q102 0 170 -43.5
t113 -136.5zM700 518q0 116 -38.5 178t-110.5 62q-101 0 -167.5 -134t-66.5 -341q0 -117 38.5 -177.5t111.5 -60.5q101 0 167 133.5t66 339.5z" />
    <glyph glyph-name="Delta" unicode="&#x2206;" horiz-adv-x="1427" 
d="M713 1110l-326 -854h653zM563 1473h301l563 -1473h-1427z" />
    <glyph glyph-name="product" unicode="&#x220f;" horiz-adv-x="1612" 
d="M150 1473h1308v-1866h-344v1577h-620v-1577h-344v1866z" />
    <glyph glyph-name="summation" unicode="&#x2211;" horiz-adv-x="1470" 
d="M66 1473h1308v-265h-878l620 -645l-622 -690h933v-266h-1386v172l698 772l-673 690v232z" />
    <glyph glyph-name="minus" unicode="&#x2212;" horiz-adv-x="1706" 
d="M254 713h1198v-203h-1198v203z" />
    <glyph glyph-name="uni2215" unicode="&#x2215;" horiz-adv-x="342" 
d="M-342 -39l862 1518h162l-860 -1518h-164z" />
    <glyph glyph-name="uni2219" unicode="&#x2219;" horiz-adv-x="608" 
d="M131 719q0 71 50.5 121.5t121.5 50.5t120.5 -50t49.5 -122q0 -71 -49 -120.5t-121 -49.5t-122 49.5t-50 120.5z" />
    <glyph glyph-name="radical" unicode="&#x221a;" horiz-adv-x="1346" 
d="M1141 1694h207v-129h-103l-592 -1606h-100l-311 858l-140 -51l-30 113l331 116l236 -661z" />
    <glyph glyph-name="infinity" unicode="&#x221e;" horiz-adv-x="1706" 
d="M942 561q45 -75 106.5 -113t139.5 -38q94 0 152.5 55.5t58.5 144.5q0 86 -54 142.5t-135 56.5q-74 0 -136 -57t-132 -191zM766 659q-46 76 -107 113t-139 37q-93 0 -152 -56.5t-59 -144.5q0 -85 54 -141.5t135 -56.5q75 0 138 58t130 191zM858 457q-69 -133 -147 -195.5
t-174 -62.5q-139 0 -235.5 117.5t-96.5 293.5q0 184 85.5 297t223.5 113q93 0 169.5 -58.5t164.5 -199.5q68 132 148 196t175 64q139 0 235.5 -118t96.5 -294q0 -183 -86 -296t-223 -113q-93 0 -168.5 56.5t-167.5 199.5z" />
    <glyph glyph-name="integral" unicode="&#x222b;" horiz-adv-x="1186" 
d="M342 -252q102 0 121 639q3 136 6 211q16 508 123 732t328 224q98 0 157.5 -49t59.5 -129q0 -60 -38 -96.5t-100 -36.5q-46 0 -77 24t-41 68q-5 20 -7 54q-3 46 -30 47q-99 0 -119 -633q-4 -116 -6 -178q-11 -296 -31 -444.5t-59 -250.5q-56 -148 -148.5 -225.5
t-214.5 -77.5q-96 0 -156.5 49t-60.5 127q0 62 39 99t105 37q50 0 85 -31.5t35 -71.5q0 -58 6 -73t23 -15z" />
    <glyph glyph-name="approxequal" unicode="&#x2248;" horiz-adv-x="1706" 
d="M1530 596v-219q-106 -72 -198 -105.5t-181 -33.5q-95 0 -286.5 66.5t-301.5 66.5q-84 0 -174.5 -37t-210.5 -121v219q111 73 206.5 108t180.5 35q124 0 315.5 -65.5t274.5 -65.5q86 0 174 35.5t201 116.5zM1530 1008v-220q-106 -71 -196.5 -104t-180.5 -33
q-94 0 -286 65.5t-304 65.5q-82 0 -170 -35t-215 -122v219q107 71 204 107t183 36q125 0 316.5 -65.5t273.5 -65.5q84 0 171 35t204 117z" />
    <glyph glyph-name="notequal" unicode="&#x2260;" horiz-adv-x="1706" 
d="M1198 1233l148 -119l-154 -192h260v-191h-389l-191 -239h580v-193h-707l-245 -309l-148 119l154 190h-252v193h377l190 239h-567v191h696z" />
    <glyph glyph-name="lessequal" unicode="&#x2264;" horiz-adv-x="1706" 
d="M258 195h1192v-197h-1192v197zM1448 1241v-209l-834 -264l834 -262v-209l-1190 385v174z" />
    <glyph glyph-name="greaterequal" unicode="&#x2265;" horiz-adv-x="1706" 
d="M258 195h1192v-197h-1192v197zM260 1241l1188 -385v-174l-1188 -385v209l832 262l-832 264v209z" />
    <glyph glyph-name="lozenge" unicode="&#x25ca;" horiz-adv-x="1012" 
d="M506 1409l-385 -817l385 -825l385 825zM506 1653l500 -1061l-500 -1069l-500 1069z" />
    <glyph glyph-name="apple" unicode="&#xf000;" horiz-adv-x="1618" 
d="M836 1216q-1 6 -1.5 14t-0.5 23q0 124 95 229.5t236 131.5q1 -10 1.5 -23t0.5 -39q0 -131 -103.5 -234.5t-203.5 -103.5h-8q-3 0 -7.5 1t-8.5 1zM1505 403q-114 -247 -205 -342.5t-204 -95.5q-50 0 -131.5 33t-122.5 33q-45 0 -131 -33t-127 -33q-64 0 -128.5 44
t-129.5 132q-102 140 -157.5 295.5t-55.5 300.5q0 219 125 356.5t323 137.5q68 0 155 -34t124 -34q34 0 121.5 35t152.5 35q110 0 198 -40t161 -124q-102 -65 -151.5 -145.5t-49.5 -182.5q0 -113 60 -200t173 -138z" />
    <glyph glyph-name="fi" unicode="&#xf001;" horiz-adv-x="1223" 
d="M850 1360q0 70 48 118t118 48q69 0 117.5 -48.5t48.5 -117.5t-48.5 -117.5t-117.5 -48.5q-70 0 -118 48t-48 118zM700 0l129 981h283l-129 -981h-283zM84 0l98 758h-176l31 223h176l21 138q2 15 7 47q33 224 95 302q41 51 103.5 76t148.5 25q64 0 119 -12t102 -35
l-33 -256q-31 20 -62 30.5t-65 10.5q-61 0 -91 -38t-44 -143l-18 -145h200l-28 -223h-201l-100 -758h-283z" />
    <glyph glyph-name="fl" unicode="&#xf002;" horiz-adv-x="1223" 
d="M84 0l98 758h-176l31 223h176l21 138q2 15 7 47q33 224 95 302q41 51 103.5 76t148.5 25q64 0 119 -12t102 -35l-33 -256q-31 20 -62 30.5t-65 10.5q-61 0 -91 -38t-44 -143l-18 -145h200l-28 -223h-201l-100 -758h-283zM700 0l205 1550h283l-205 -1550h-283z" />
    </font>
</defs>
</svg>
