<?xml version="1.0" standalone="no"?>
<!DOCTYPE svg PUBLIC "-//W3C//DTD SVG 1.1//EN" "http://www.w3.org/Graphics/SVG/1.1/DTD/svg11.dtd" >
<svg xmlns="http://www.w3.org/2000/svg" xmlns:xlink="http://www.w3.org/1999/xlink" version="1.1">
<metadata>
Created by FontForge 20170731 at Tue Feb 25 22:47:01 2020
 By Aleksey,,,
Copyright 1990-1993 Bitstream Inc.  All rights reserved.
</metadata>
<defs>
<font id="FuturaWindows-LightItalic" horiz-adv-x="1024" >
  <font-face 
    font-family="Futura Windows Light"
    font-weight="300"
    font-style="italic"
    font-stretch="normal"
    units-per-em="2048"
    panose-1="2 11 4 2 2 2 4 9 3 3"
    ascent="1638"
    descent="-410"
    x-height="887"
    cap-height="1464"
    bbox="-342 -483 2306 1970"
    underline-thickness="80"
    underline-position="-343"
    slope="-7.5"
    unicode-range="U+001D-F002"
  />
<missing-glyph horiz-adv-x="1229" 
d="M102 -362v1806h1024v-1806h-1024zM217 -248h795v1577h-795v-1577z" />
    <glyph glyph-name=".notdef" horiz-adv-x="1229" 
d="M102 -362v1806h1024v-1806h-1024zM217 -248h795v1577h-795v-1577z" />
    <glyph glyph-name="uni0000" horiz-adv-x="0" 
 />
    <glyph glyph-name="uni0000" horiz-adv-x="0" 
 />
    <glyph glyph-name="uni000D" horiz-adv-x="573" 
 />
    <glyph glyph-name="space" unicode=" " horiz-adv-x="573" 
 />
    <glyph glyph-name="exclam" unicode="!" horiz-adv-x="621" 
d="M193 291l157 1206h121l-160 -1206h-118zM326 63q0 -43 -30 -72.5t-73 -29.5t-72.5 29.5t-29.5 72.5t29.5 73t72.5 30t73 -30t30 -73z" />
    <glyph glyph-name="quotedbl" unicode="&#x22;" horiz-adv-x="551" 
d="M451 1434v-553h-86v553h86zM186 1434v-553h-86v553h86z" />
    <glyph glyph-name="numbersign" unicode="#" horiz-adv-x="1575" 
d="M979 866h-270l-99 -282h269zM915 1454l-174 -498h271l176 498h110l-174 -498h322l-31 -90h-323l-101 -282h348l-30 -90h-351l-174 -494h-112l176 494h-270l-179 -494h-110l174 494h-334l31 90h336l100 282h-360l28 90h365l176 498h110z" />
    <glyph glyph-name="dollar" unicode="$" horiz-adv-x="1147" 
d="M545 829l69 533q-117 -10 -186.5 -83.5t-69.5 -186.5q0 -88 42 -147.5t145 -115.5zM600 662l-76 -584q134 11 206.5 90.5t72.5 214.5q0 95 -49 162t-154 117zM158 342q54 -116 124.5 -179.5t163.5 -80.5l82 618q-154 76 -222 169t-68 227q0 161 106.5 264.5t284.5 114.5
l20 147h78l-20 -152q91 -10 164.5 -61.5t136.5 -148.5l-80 -72q-50 80 -110.5 123.5t-125.5 45.5l-74 -564q164 -73 238 -171t74 -239q0 -186 -114 -299.5t-308 -122.5l-23 -172h-77l24 178q-118 15 -205 85t-155 206z" />
    <glyph glyph-name="percent" unicode="%" horiz-adv-x="1466" 
d="M406 1477q126 0 189.5 -77t63.5 -229q0 -197 -91.5 -328.5t-223.5 -131.5q-128 0 -193 76.5t-65 226.5q0 201 91.5 332t228.5 131zM188 1001q0 -104 37 -158.5t109 -54.5q96 0 158.5 113t62.5 293q0 108 -34 157.5t-109 49.5q-94 0 -159 -114t-65 -286zM274 -39l824 1518
h86l-824 -1518h-86zM1128 735q126 0 190 -77.5t64 -229.5q0 -197 -91.5 -328t-223.5 -131q-128 0 -193 76.5t-65 226.5q0 201 91.5 332t227.5 131zM913 260q0 -107 36 -160t108 -53q95 0 158 113.5t63 292.5q0 108 -34 157t-107 49q-95 0 -159.5 -113t-64.5 -286z" />
    <glyph glyph-name="ampersand" unicode="&#x26;" horiz-adv-x="1233" 
d="M547 918q146 76 214 145.5t68 142.5q0 75 -52.5 124.5t-133.5 49.5q-89 0 -144 -58t-55 -153q0 -52 25.5 -114t77.5 -137zM842 297l-336 473q-192 -105 -275.5 -201t-83.5 -209q0 -123 78 -203.5t199 -80.5q99 0 198.5 52t219.5 169zM1055 0l-148 201
q-132 -126 -247.5 -184t-233.5 -58q-169 0 -283 117t-114 289q0 142 99 260t321 237q-63 102 -91 176t-28 136q0 135 89.5 222t227.5 87q131 0 214 -76t83 -195q0 -106 -81 -197.5t-261 -185.5l322 -452q47 44 97.5 97t104.5 116l76 -84q-41 -46 -153 -166l-56 -59l201 -281
h-139z" />
    <glyph glyph-name="quotesingle" unicode="'" horiz-adv-x="285" 
d="M186 1434v-553h-86v553h86z" />
    <glyph glyph-name="parenleft" unicode="(" horiz-adv-x="635" 
d="M322 -397q-82 184 -122 370t-40 379q0 321 102 621t297 555l76 -72q-183 -238 -278 -525t-95 -601q0 -169 37 -335t115 -341z" />
    <glyph glyph-name="parenright" unicode=")" horiz-adv-x="635" 
d="M266 1528q82 -185 122 -370.5t40 -379.5q0 -320 -102 -620.5t-297 -554.5l-76 69q182 239 277.5 527t95.5 602q0 169 -37.5 335t-114.5 341z" />
    <glyph glyph-name="asterisk" unicode="*" horiz-adv-x="854" 
d="M186 958l-32 82l245 95l-217 155l54 74l208 -174l27 274l86 -10l-39 -272l244 114l33 -79l-248 -101l217 -149l-55 -72l-209 166l-25 -266l-84 12l39 260z" />
    <glyph glyph-name="plus" unicode="+" horiz-adv-x="1706" 
d="M893 1221v-570h559v-82h-559v-569h-80v569h-559v82h559v570h80z" />
    <glyph glyph-name="comma" unicode="," horiz-adv-x="573" 
d="M-59 -229l266 508l135 -80l-324 -478z" />
    <glyph glyph-name="hyphen" unicode="-" horiz-adv-x="616" 
d="M55 496h437l-15 -111h-436z" />
    <glyph glyph-name="period" unicode="." horiz-adv-x="573" 
d="M98 84q0 43 30 72.5t73 29.5t72.5 -29.5t29.5 -72.5t-29.5 -72.5t-72.5 -29.5t-73 29.5t-30 72.5z" />
    <glyph glyph-name="slash" unicode="/" horiz-adv-x="887" 
d="M0 -190l782 1687h105l-783 -1687h-104z" />
    <glyph glyph-name="zero" unicode="0" horiz-adv-x="1147" 
d="M653 1366q-86 0 -160.5 -48t-125.5 -138q-71 -124 -112.5 -302.5t-41.5 -365.5q0 -217 70.5 -328.5t208.5 -111.5q190 0 314 239.5t124 622.5q0 217 -68.5 324.5t-208.5 107.5zM1063 899q0 -200 -46 -382.5t-128 -315.5q-73 -118 -174.5 -180t-220.5 -62
q-195 0 -301.5 151t-106.5 429q0 203 45 385.5t127 314.5q75 121 174.5 180.5t229.5 59.5q188 0 294.5 -153.5t106.5 -426.5z" />
    <glyph glyph-name="one" unicode="1" horiz-adv-x="1147" 
d="M432 0l178 1341h-264l51 109h351l-191 -1450h-125z" />
    <glyph glyph-name="two" unicode="2" horiz-adv-x="1147" 
d="M2 0l526 483q254 233 332 355t78 245q0 137 -84.5 212t-239.5 75q-147 0 -242.5 -97t-101.5 -255h-120q9 219 134.5 341t342.5 122q205 0 320.5 -104t115.5 -287q0 -282 -489 -722l-35 -32l-246 -221h643l-14 -115h-920z" />
    <glyph glyph-name="three" unicode="3" horiz-adv-x="1147" 
d="M177 369q12 -142 95.5 -219.5t222.5 -77.5q161 0 259.5 93.5t98.5 246.5q0 136 -94 208t-273 72h-22l16 114q9 0 21.5 -0.5t34.5 -0.5q184 0 285.5 81t101.5 228q0 116 -81 186t-216 70q-126 0 -209.5 -68.5t-95.5 -181.5h-132q23 161 144.5 260t294.5 99
q187 0 302.5 -99.5t115.5 -259.5q0 -143 -84 -242t-240 -139q124 -32 191 -117.5t67 -211.5q0 -199 -133 -324t-348 -125q-201 0 -316 106.5t-124 301.5h118z" />
    <glyph glyph-name="four" unicode="4" horiz-adv-x="1147" 
d="M690 469l103 705l-574 -705h471zM629 0l49 358h-674l944 1141l-135 -1030h156l-15 -111h-155l-49 -358h-121z" />
    <glyph glyph-name="five" unicode="5" horiz-adv-x="1147" 
d="M121 274q70 -103 155 -152.5t195 -49.5q171 0 289.5 116t118.5 281q0 169 -98.5 267t-268.5 98q-85 0 -163.5 -26.5t-137.5 -74.5l-43 31l254 686h594l-15 -119h-495l-166 -432q50 21 96.5 31t93.5 10q219 0 349.5 -125t130.5 -334q0 -221 -151 -371.5t-374 -150.5
q-148 0 -255.5 52.5t-192.5 166.5z" />
    <glyph glyph-name="six" unicode="6" horiz-adv-x="1147" 
d="M932 1413l-549 -602q61 30 120.5 44.5t117.5 14.5q174 0 278.5 -113t104.5 -302q0 -212 -142 -353t-356 -141q-194 0 -309 116.5t-115 311.5q0 150 81 302.5t296 385.5l385 420zM559 772q-150 0 -252 -109.5t-102 -269.5q0 -144 84.5 -229.5t226.5 -85.5
q160 0 262.5 105.5t102.5 271.5q0 151 -84.5 234t-237.5 83z" />
    <glyph glyph-name="seven" unicode="7" horiz-adv-x="1147" 
d="M170 10l739 1317h-702l18 123h893l-839 -1503z" />
    <glyph glyph-name="eight" unicode="8" horiz-adv-x="1147" 
d="M205 371q0 -132 84 -213.5t221 -81.5q159 0 258.5 99.5t99.5 258.5q0 131 -86.5 210t-230.5 79q-151 0 -248.5 -99.5t-97.5 -252.5zM338 1094q0 -114 70.5 -180t193.5 -66q132 0 212.5 72.5t80.5 191.5q0 122 -70.5 190t-195.5 68q-130 0 -210.5 -77t-80.5 -199zM416 797
q-102 56 -150.5 131.5t-48.5 177.5q0 160 115.5 266.5t290.5 106.5q181 0 285 -92t104 -252q0 -142 -74 -235t-205 -118q129 -38 192.5 -126.5t63.5 -231.5q0 -202 -133.5 -332.5t-343.5 -130.5q-198 0 -313 113.5t-115 308.5q0 161 84.5 266.5t247.5 147.5z" />
    <glyph glyph-name="nine" unicode="9" horiz-adv-x="1147" 
d="M578 668q151 0 253.5 108.5t102.5 267.5q0 144 -86 231t-227 87q-160 0 -262.5 -105.5t-102.5 -271.5q0 -151 84.5 -234t237.5 -83zM205 27l549 602q-61 -30 -120.5 -45t-117.5 -15q-174 0 -278.5 113t-104.5 303q0 211 141.5 352.5t356.5 141.5q193 0 308.5 -116.5
t115.5 -311.5q0 -151 -82 -305t-295 -386l-385 -417z" />
    <glyph glyph-name="colon" unicode=":" horiz-adv-x="621" 
d="M127 90q0 43 29.5 73t72.5 30t73 -30t30 -73t-30 -72.5t-73 -29.5t-72.5 29.5t-29.5 72.5zM211 760q0 43 29.5 72.5t72.5 29.5t73 -29.5t30 -72.5t-30 -73t-73 -30t-72.5 30t-29.5 73z" />
    <glyph glyph-name="semicolon" unicode=";" horiz-adv-x="621" 
d="M211 760q0 43 29.5 72.5t72.5 29.5t73 -29.5t30 -72.5t-30 -73t-73 -30t-72.5 30t-29.5 73zM-33 -229l266 508l136 -80l-324 -478z" />
    <glyph glyph-name="less" unicode="&#x3c;" horiz-adv-x="1706" 
d="M1442 1034l-1045 -424l1045 -424v-88l-1178 482v61l1178 483v-90z" />
    <glyph glyph-name="equal" unicode="=" horiz-adv-x="1706" 
d="M1452 469v-82h-1198v82h1198zM1452 831v-79h-1198v79h1198z" />
    <glyph glyph-name="greater" unicode="&#x3e;" horiz-adv-x="1706" 
d="M1442 641v-61l-1178 -482v88l1045 424l-1045 424v90z" />
    <glyph glyph-name="question" unicode="?" horiz-adv-x="1014" 
d="M799 563q-34 -127 -113.5 -189.5t-210.5 -62.5q-137 0 -221 73.5t-84 193.5q0 97 58 170t171 116q275 103 342.5 164.5t67.5 153.5q0 95 -65.5 153t-174.5 58q-104 0 -172.5 -60.5t-101.5 -181.5l-115 33q42 155 145 236t259 81q155 0 251.5 -92t96.5 -242
q0 -104 -71.5 -190t-198.5 -135q-23 -9 -68 -26q-305 -119 -305 -241q0 -71 51 -115t135 -44q83 0 133.5 42.5t73.5 131.5zM309 63q0 43 30 73t73 30q42 0 71 -29.5t29 -73.5q0 -43 -29 -72.5t-71 -29.5q-43 0 -73 29.5t-30 72.5z" />
    <glyph glyph-name="at" unicode="@" horiz-adv-x="2048" 
d="M1303 827l61 129h80l-137 -553q-10 -36 -15.5 -64.5t-5.5 -43.5q0 -44 30.5 -68t86.5 -24q48 0 100 19.5t103 56.5q101 74 162 207t61 282q0 273 -199.5 439.5t-525.5 166.5q-168 0 -310.5 -48t-258.5 -144q-154 -128 -232 -297t-78 -375q0 -327 221.5 -522t591.5 -195
q161 0 324 50.5t299 142.5l29 -45q-146 -110 -308.5 -165t-339.5 -55q-187 0 -343 46.5t-277 138.5q-152 115 -226.5 267.5t-74.5 348.5q0 162 50.5 307t147.5 265q144 175 345.5 265.5t449.5 90.5q160 0 304.5 -44t248.5 -124q128 -98 194 -226.5t66 -277.5
q0 -169 -63 -308t-181 -232q-67 -54 -145.5 -82.5t-159.5 -28.5q-95 0 -143.5 36.5t-48.5 108.5q0 12 3 34q1 3 1 5q-49 -88 -125 -136t-166 -48q-154 0 -233.5 83t-79.5 243q0 228 134.5 386t326.5 158q95 0 160 -43t96 -127zM1219 467l63 254q-22 99 -81.5 151t-151.5 52
q-152 0 -255.5 -138t-103.5 -340q0 -115 57.5 -180t159.5 -65q111 0 196 72.5t116 193.5z" />
    <glyph glyph-name="A" unicode="A" horiz-adv-x="1176" 
d="M862 586l-182 641l-354 -641h536zM-147 0l864 1499l452 -1499h-137l-139 479h-631l-270 -479h-139z" />
    <glyph glyph-name="B" unicode="B" horiz-adv-x="1104" 
d="M315 834h131q113 0 166.5 8t92.5 26q64 31 101.5 98t37.5 152q0 65 -26 115t-75 82q-32 21 -76.5 30t-140.5 9h-55h-88zM82 0l192 1464h230q162 0 235 -19t123 -65q52 -47 79.5 -113t27.5 -145q0 -132 -61 -217t-181 -119q129 -38 195.5 -128t66.5 -226
q0 -103 -47.5 -196.5t-130.5 -151.5q-65 -46 -162 -65t-336 -19h-231zM221 115h182q123 0 183 9.5t106 31.5q77 36 120.5 112.5t43.5 175.5q0 79 -30.5 139.5t-88.5 94.5q-41 25 -101.5 35t-223.5 10h-111z" />
    <glyph glyph-name="C" unicode="C" horiz-adv-x="1421" 
d="M1415 1335l-35 -135q-85 94 -199 140t-257 46q-142 0 -262.5 -48t-210.5 -140q-102 -103 -156.5 -239.5t-54.5 -286.5q0 -273 165.5 -434.5t446.5 -161.5q93 0 199.5 33.5t228.5 101.5l-35 -154q-120 -49 -224 -72.5t-202 -23.5q-321 0 -517 197t-196 518q0 177 63.5 333
t180.5 269q112 107 259.5 163t318.5 56q146 0 266.5 -40t220.5 -122z" />
    <glyph glyph-name="D" unicode="D" horiz-adv-x="1403" 
d="M221 109h92q285 0 402.5 27t202.5 91q116 89 180.5 234t64.5 319q0 151 -51 270t-149 197q-74 59 -174 84t-302 25h-102zM82 0l192 1464h195q262 0 375 -29t205 -98q120 -90 184.5 -234t64.5 -323q0 -157 -49 -296.5t-141 -243.5q-67 -75 -148.5 -126.5t-177.5 -78.5
q-64 -18 -136.5 -26.5t-178.5 -8.5h-141h-244z" />
    <glyph glyph-name="E" unicode="E" horiz-adv-x="1042" 
d="M82 0l192 1464h721l-14 -112h-596l-63 -480h579l-14 -110h-580l-84 -647h611l-17 -115h-735z" />
    <glyph glyph-name="F" unicode="F" horiz-adv-x="1014" 
d="M82 0l192 1464h721l-14 -112h-596l-63 -480h579l-14 -110h-580l-100 -762h-125z" />
    <glyph glyph-name="G" unicode="G" horiz-adv-x="1669" 
d="M922 608l14 109h620v-4q0 -349 -196.5 -550.5t-536.5 -201.5q-322 0 -519.5 196.5t-197.5 516.5q0 179 63.5 336t180.5 268q114 109 261 165t319 56q204 0 354.5 -72.5t267.5 -228.5l-88 -82q-102 138 -235 205.5t-303 67.5q-137 0 -259 -50t-216 -145
q-102 -101 -156.5 -237t-54.5 -285q0 -267 161 -431.5t424 -164.5q253 0 416 147t174 385h-493z" />
    <glyph glyph-name="H" unicode="H" horiz-adv-x="1411" 
d="M82 0l192 1464h125l-80 -604h803l80 604h125l-192 -1464h-125l98 752h-803l-98 -752h-125z" />
    <glyph glyph-name="I" unicode="I" horiz-adv-x="494" 
d="M86 0l195 1464h125l-193 -1464h-127z" />
    <glyph glyph-name="J" unicode="J" horiz-adv-x="770" 
d="M-68 117l105 76q35 -55 80 -82t102 -27q176 0 248 560q10 84 16 130l90 690h129l-114 -870q-3 -21 -8 -60q-45 -359 -107 -454q-38 -57 -106.5 -88t-157.5 -31q-96 0 -162.5 37.5t-114.5 118.5z" />
    <glyph glyph-name="K" unicode="K" horiz-adv-x="1128" 
d="M82 0l192 1464h125l-92 -700l697 700h161l-716 -712l608 -752h-166l-588 735l-96 -735h-125z" />
    <glyph glyph-name="L" unicode="L" horiz-adv-x="844" 
d="M82 0l192 1464h125l-178 -1349h565l-14 -115h-690z" />
    <glyph glyph-name="M" unicode="M" horiz-adv-x="1706" 
d="M2 0l449 1503l352 -1261l676 1261l63 -1503h-123l-39 1106l-618 -1153l-320 1155l-307 -1108h-133z" />
    <glyph glyph-name="N" unicode="N" horiz-adv-x="1516" 
d="M82 0l199 1503l876 -1224l156 1185h121l-199 -1503l-875 1223l-155 -1184h-123z" />
    <glyph glyph-name="O" unicode="O" horiz-adv-x="1761" 
d="M1522 788q0 268 -165 433t-433 165q-136 0 -258.5 -49.5t-214.5 -142.5q-103 -104 -157 -238.5t-54 -283.5q0 -268 163.5 -432t430.5 -164q138 0 261 49.5t218 144.5q100 101 154.5 235.5t54.5 282.5zM928 1497q331 0 529 -194t198 -519q0 -175 -64 -329.5t-184 -268.5
q-113 -108 -266 -166.5t-324 -58.5q-318 0 -514.5 197.5t-196.5 515.5q0 179 63.5 336t180.5 268q110 106 260 162.5t318 56.5z" />
    <glyph glyph-name="P" unicode="P" horiz-adv-x="1034" 
d="M207 0h-125l192 1464h209q185 0 260.5 -18.5t133.5 -63.5q62 -49 95.5 -121t33.5 -159q0 -107 -38.5 -190t-113.5 -140q-64 -47 -150 -67.5t-274 -20.5h-47h-86zM467 1350h-82l-74 -557h154q110 0 163.5 8.5t94.5 27.5q72 35 113 105t41 162q0 72 -28.5 127t-80.5 86
q-36 21 -85.5 31t-141.5 10h-74z" />
    <glyph glyph-name="Q" unicode="Q" horiz-adv-x="1761" 
d="M963 481l249 -291q148 100 229 257.5t81 345.5q0 264 -165 428.5t-431 164.5q-138 0 -260 -49t-215 -143q-102 -101 -156.5 -237t-54.5 -285q0 -270 164.5 -433t439.5 -163q63 0 129 14.5t137 44.5l-295 346h148zM1503 -147h-147l-164 192q-100 -41 -191 -61.5
t-176 -20.5q-324 0 -521.5 196t-197.5 517q0 178 63 333.5t181 268.5q112 107 259.5 163t318.5 56q329 0 527 -192.5t198 -511.5q0 -220 -93 -399.5t-268 -295.5z" />
    <glyph glyph-name="R" unicode="R" horiz-adv-x="1081" 
d="M207 0h-125l192 1464h209q185 0 260.5 -18.5t133.5 -63.5q62 -49 95.5 -121t33.5 -159q0 -197 -124.5 -306.5t-348.5 -111.5l452 -684h-145l-447 684h-96zM467 1350h-82l-74 -557h154q110 0 163.5 8.5t94.5 27.5q72 35 113 105t41 162q0 72 -28.5 127t-80.5 86
q-36 21 -85.5 31t-141.5 10h-74z" />
    <glyph glyph-name="S" unicode="S" horiz-adv-x="1020" 
d="M90 348q64 -137 149.5 -202.5t200.5 -65.5q138 0 219.5 84t81.5 225q0 100 -47 164.5t-198 144.5q-200 107 -262 193.5t-62 220.5q0 168 115.5 276.5t296.5 108.5q117 0 205.5 -52t160.5 -165l-84 -74q-54 90 -125 135t-159 45q-127 0 -209 -78t-82 -198q0 -91 46 -152
t214 -151q196 -106 257.5 -193.5t61.5 -222.5q0 -190 -120 -309t-312 -119q-150 0 -257.5 74.5t-176.5 226.5z" />
    <glyph glyph-name="T" unicode="T" horiz-adv-x="995" 
d="M328 0l178 1348h-420l16 116h930l-16 -116h-385l-176 -1348h-127z" />
    <glyph glyph-name="U" unicode="U" horiz-adv-x="1384" 
d="M387 1464l-119 -901q-5 -37 -7.5 -71t-2.5 -68q0 -167 90.5 -259.5t253.5 -92.5q118 0 207.5 41.5t148.5 124.5q79 107 118 405q4 25 5 36l103 785h125l-109 -823q-2 -19 -7 -58q-38 -300 -128 -417q-76 -101 -197.5 -155t-273.5 -54q-219 0 -340 114t-121 320
q0 52 7 125.5t24 198.5l98 749h125z" />
    <glyph glyph-name="V" unicode="V" horiz-adv-x="1157" 
d="M446 -39l-385 1503h132l294 -1192l600 1192h134z" />
    <glyph glyph-name="W" unicode="W" horiz-adv-x="1849" 
d="M422 -51l-346 1515h129l258 -1149l506 1192l272 -1194l496 1151h133l-662 -1515l-272 1208z" />
    <glyph glyph-name="X" unicode="X" horiz-adv-x="1053" 
d="M-86 0l539 756l-342 708h139l291 -620l430 620h147l-520 -735l369 -729h-142l-315 639l-438 -639h-158z" />
    <glyph glyph-name="Y" unicode="Y" horiz-adv-x="1014" 
d="M346 0l90 684l-395 780h137l330 -661l455 661h141l-541 -786l-90 -678h-127z" />
    <glyph glyph-name="Z" unicode="Z" horiz-adv-x="1139" 
d="M-43 0l969 1348h-729l16 116h940l-969 -1347h787l-15 -117h-999z" />
    <glyph glyph-name="bracketleft" unicode="[" horiz-adv-x="635" 
d="M123 -369l246 1866h274l-12 -102h-170l-217 -1659h168l-15 -105h-274z" />
    <glyph glyph-name="backslash" unicode="\" horiz-adv-x="887" 
d="M725 -190h-104l-459 1687h104z" />
    <glyph glyph-name="bracketright" unicode="]" horiz-adv-x="635" 
d="M471 1497l-246 -1866h-274l14 105h168l219 1659h-170l15 102h274z" />
    <glyph glyph-name="asciicircum" unicode="^" horiz-adv-x="2048" 
d="M1081 1458l541 -557h-125l-473 469l-475 -469h-125l539 557h118z" />
    <glyph glyph-name="underscore" unicode="_" 
d="M1024 -403v-80h-1024v80h1024z" />
    <glyph glyph-name="grave" unicode="`" 
d="M670 1030h-90l-281 350h147z" />
    <glyph glyph-name="a" unicode="a" horiz-adv-x="1096" 
d="M457 63q137 0 229 118t92 298q0 153 -75.5 246.5t-198.5 93.5q-140 0 -233 -116.5t-93 -296.5q0 -157 76 -250t203 -93zM950 887l-116 -887h-119l18 133q-55 -86 -132.5 -129t-176.5 -43q-163 0 -267 126t-104 325q0 218 126 363t317 145q114 0 190 -51.5t121 -159.5
l24 178h119z" />
    <glyph glyph-name="b" unicode="b" horiz-adv-x="1096" 
d="M559 819q-137 0 -228 -117.5t-91 -298.5q0 -153 75.5 -246.5t198.5 -93.5q140 0 233 117.5t93 296.5q0 155 -77.5 248.5t-203.5 93.5zM66 0l204 1550h119l-104 -798q62 85 136.5 125.5t170.5 40.5q164 0 268.5 -125t104.5 -324q0 -218 -127 -363t-316 -145
q-114 0 -192 53t-121 160l-23 -174h-120z" />
    <glyph glyph-name="c" unicode="c" horiz-adv-x="909" 
d="M741 27q-63 -33 -123 -49.5t-120 -16.5q-205 0 -329 123t-124 324q0 221 145 366.5t367 145.5q85 0 158 -22.5t139 -68.5l-31 -112q-67 49 -134 72.5t-138 23.5q-165 0 -272 -112.5t-107 -286.5q0 -154 91 -249t239 -95q66 0 129.5 24.5t134.5 77.5z" />
    <glyph glyph-name="d" unicode="d" horiz-adv-x="1096" 
d="M457 63q137 0 229 118.5t92 299.5q0 153 -75.5 246.5t-198.5 93.5q-140 0 -233 -116.5t-93 -296.5q0 -157 76.5 -251t202.5 -94zM920 1550h118l-202 -1550h-121l18 133q-57 -87 -133 -129.5t-174 -42.5q-163 0 -268 127t-105 326q0 219 126.5 363.5t318.5 144.5
q114 0 189 -52t120 -161z" />
    <glyph glyph-name="e" unicode="e" horiz-adv-x="1047" 
d="M803 526q0 139 -68.5 215t-193.5 76q-138 0 -228 -73.5t-129 -217.5h619zM915 426h-743v-23q0 -160 81.5 -248.5t229.5 -88.5q91 0 163.5 41.5t129.5 125.5l82 -79q-73 -99 -164.5 -146t-212.5 -47q-196 0 -315 117t-119 309q0 236 134.5 384.5t346.5 148.5
q188 0 291 -106t103 -298q0 -18 -2 -41.5t-5 -48.5z" />
    <glyph glyph-name="f" unicode="f" horiz-adv-x="545" 
d="M102 0l105 782h-162l14 105h160l53 399q23 164 74 224.5t158 60.5q40 0 75.5 -7.5t65.5 -21.5l-16 -106q-37 14 -62.5 20t-44.5 6q-60 0 -88.5 -39t-42.5 -147l-51 -389h211l-14 -105h-211l-103 -782h-121z" />
    <glyph glyph-name="g" unicode="g" horiz-adv-x="1096" 
d="M457 78q137 0 229 116.5t92 292.5q0 151 -75.5 242.5t-198.5 91.5q-140 0 -233 -114t-93 -291q0 -154 76 -246t203 -92zM950 887l-112 -856q-34 -253 -140 -365t-305 -112q-160 0 -263.5 93.5t-113.5 247.5l123 1v-5q0 -103 72.5 -167t189.5 -64q144 0 216 85t102 300
l14 102q-56 -85 -132 -127.5t-175 -42.5q-163 0 -268 124t-105 319q0 215 126 357.5t317 142.5q115 0 190.5 -51t120.5 -158l24 176h119z" />
    <glyph glyph-name="h" unicode="h" horiz-adv-x="1055" 
d="M66 0l204 1550h119l-110 -807q69 90 150 133.5t179 43.5q127 0 201 -69t74 -189q0 -21 -2 -46t-7 -53l-73 -563h-121l74 556q3 22 4.5 42.5t1.5 42.5q0 85 -52 129.5t-151 44.5q-132 0 -210.5 -93.5t-102.5 -279.5l-58 -442h-120z" />
    <glyph glyph-name="i" unicode="i" horiz-adv-x="461" 
d="M201 1214q0 39 25.5 65t64.5 26q38 0 64 -26t26 -65q0 -38 -26 -64t-64 -26q-39 0 -64.5 26t-25.5 64zM76 0l117 887h120l-116 -887h-121z" />
    <glyph glyph-name="j" unicode="j" horiz-adv-x="461" 
d="M201 1214q0 39 25.5 65t64.5 26q38 0 64 -26t26 -65q0 -38 -26 -64t-64 -26q-39 0 -64.5 26t-25.5 64zM16 -446l177 1333h120l-176 -1333h-121z" />
    <glyph glyph-name="k" unicode="k" horiz-adv-x="924" 
d="M66 0l204 1550h119l-137 -1052l489 389h187l-531 -410l432 -477h-147l-434 471l-62 -471h-120z" />
    <glyph glyph-name="l" unicode="l" horiz-adv-x="461" 
d="M76 0l205 1550h118l-204 -1550h-119z" />
    <glyph glyph-name="m" unicode="m" horiz-adv-x="1583" 
d="M637 0l74 560q3 22 4.5 41t1.5 38q0 88 -48.5 134t-140.5 46q-122 0 -192.5 -91.5t-93.5 -281.5l-58 -446h-118l114 887h113l-23 -139q67 89 143.5 132.5t168.5 43.5q100 0 165 -50t87 -143q66 97 145 145t174 48q118 0 186 -69t68 -189q0 -19 -2 -44t-6 -55l-72 -567
h-117l72 559q1 7 2 21q4 41 4 65q0 84 -48.5 129t-139.5 45q-122 0 -193 -92t-94 -281l-57 -446h-119z" />
    <glyph glyph-name="n" unicode="n" horiz-adv-x="1055" 
d="M66 0l116 887h117l-20 -144q69 90 150 133.5t179 43.5q127 0 201 -69t74 -189q0 -21 -2 -46t-7 -53l-73 -563h-121l74 556q3 22 4.5 42.5t1.5 42.5q0 85 -52 129.5t-151 44.5q-132 0 -210.5 -93.5t-102.5 -279.5l-58 -442h-120z" />
    <glyph glyph-name="o" unicode="o" horiz-adv-x="1118" 
d="M543 811q-161 0 -266 -113t-105 -286q0 -152 91 -247t237 -95q159 0 264.5 114t105.5 285q0 150 -92 246t-235 96zM45 406q0 221 143.5 367.5t360.5 146.5q199 0 324.5 -123.5t125.5 -317.5q0 -225 -141.5 -371.5t-359.5 -146.5q-204 0 -328.5 122.5t-124.5 322.5z" />
    <glyph glyph-name="p" unicode="p" horiz-adv-x="1096" 
d="M559 819q-137 0 -228 -117.5t-91 -298.5q0 -153 75.5 -247.5t198.5 -94.5q139 0 232.5 118.5t93.5 297.5q0 156 -77 249t-204 93zM6 -446l176 1333h117l-18 -137q65 88 139 129t170 41q164 0 269.5 -126t105.5 -325q0 -220 -126 -365t-317 -145q-113 0 -191 53t-122 160
l-82 -618h-121z" />
    <glyph glyph-name="q" unicode="q" horiz-adv-x="1096" 
d="M457 61q137 0 229 118.5t92 299.5q0 153 -75.5 246.5t-198.5 93.5q-140 0 -233 -116.5t-93 -296.5q0 -157 76.5 -251t202.5 -94zM952 887l-176 -1333h-121l78 575q-60 -86 -135 -127t-172 -41q-163 0 -268 126t-105 325q0 219 126 363.5t317 144.5q115 0 190 -51
t121 -160l24 178h121z" />
    <glyph glyph-name="r" unicode="r" horiz-adv-x="627" 
d="M66 0l116 887h117l-23 -150q63 91 131 138t138 47q28 0 54.5 -5t49.5 -14l-28 -121q-40 14 -61.5 19.5t-35.5 5.5q-118 0 -187.5 -88t-92.5 -268l-58 -451h-120z" />
    <glyph glyph-name="s" unicode="s" horiz-adv-x="807" 
d="M70 211q59 -77 127 -113.5t151 -36.5q87 0 144 46.5t57 115.5q0 57 -31.5 92t-148.5 82q-156 63 -207 117.5t-51 138.5q0 121 82 195t217 74q75 0 147.5 -33t140.5 -98l-71 -80q-53 56 -110.5 85t-119.5 29q-77 0 -125.5 -45t-48.5 -116q0 -86 166 -152q36 -14 55 -23
q121 -52 172.5 -110.5t51.5 -140.5q0 -126 -88.5 -201.5t-237.5 -75.5q-113 0 -198 42.5t-152 131.5z" />
    <glyph glyph-name="t" unicode="t" horiz-adv-x="498" 
d="M184 782h-147l12 105h150l47 364h119l-48 -364h181l-15 -105h-180l-102 -782h-119z" />
    <glyph glyph-name="u" unicode="u" horiz-adv-x="1053" 
d="M176 887h119l-49 -377q-14 -104 -19.5 -157t-5.5 -89q0 -90 59.5 -141t163.5 -51q132 0 199 86t96 303l58 426h118l-57 -436q-24 -177 -50.5 -253t-72.5 -126q-49 -54 -124.5 -82.5t-170.5 -28.5q-157 0 -248.5 77.5t-91.5 211.5q0 41 5 93.5t18 145.5z" />
    <glyph glyph-name="v" unicode="v" horiz-adv-x="891" 
d="M311 -55l-309 942h127l215 -694l397 694h136z" />
    <glyph glyph-name="w" unicode="w" horiz-adv-x="1327" 
d="M301 -55l-293 942h129l191 -664l342 729l168 -727l372 662h133l-548 -942l-166 710z" />
    <glyph glyph-name="x" unicode="x" horiz-adv-x="825" 
d="M-63 0l376 455l-270 432h135l215 -363l291 363h156l-387 -447l268 -440h-137l-209 365l-283 -365h-155z" />
    <glyph glyph-name="y" unicode="y" horiz-adv-x="891" 
d="M86 -446h-131l309 516l-258 817h131l207 -701l404 701h135z" />
    <glyph glyph-name="z" unicode="z" horiz-adv-x="815" 
d="M-59 0l643 782h-518l14 105h725l-637 -781h545l-15 -106h-757z" />
    <glyph glyph-name="braceleft" unicode="{" 
d="M848 1389h-37q-135 0 -182 -51.5t-47 -213.5v-241q0 -175 -43 -248t-152 -105q109 -32 152 -104t43 -248v-241q0 -162 46.5 -212.5t180.5 -50.5h39v-88h-43q-189 0 -257.5 74.5t-68.5 300.5v240q0 158 -58 222t-200 64q-7 0 -21.5 -1t-23.5 -1v90q10 -1 20.5 -1.5
t28.5 -0.5q139 0 196.5 64.5t57.5 222.5v240q0 227 68.5 302t257.5 75h43v-88z" />
    <glyph glyph-name="bar" unicode="|" 
d="M557 1565v-2048h-90v2048h90z" />
    <glyph glyph-name="braceright" unicode="}" 
d="M545 1100v-240q0 -158 58 -222.5t200 -64.5q7 0 21.5 1t23.5 1v-90q-9 0 -23.5 1t-21.5 1q-142 0 -200 -64t-58 -222v-240q0 -226 -68.5 -300.5t-257.5 -74.5h-43v88h39q134 0 180.5 50.5t46.5 212.5v241q0 174 43.5 247t153.5 105q-110 32 -153.5 105t-43.5 248v241
q0 162 -47 213.5t-182 51.5h-37v88h43q189 0 257.5 -75t68.5 -302z" />
    <glyph glyph-name="asciitilde" unicode="~" horiz-adv-x="1706" 
d="M1530 647q-106 -74 -202 -110.5t-185 -36.5q-99 0 -266 61q-16 6 -22 8q-12 4 -33 12q-167 60 -257 60q-83 0 -175 -37.5t-212 -122.5v92q105 74 201 110t186 36q100 0 271 -61q12 -5 19 -7q8 -3 27 -10q168 -61 261 -61q83 0 175 37.5t212 121.5v-92z" />
    <glyph glyph-name="uni00A0" unicode="&#xa0;" horiz-adv-x="1147" 
 />
    <glyph glyph-name="exclamdown" unicode="&#xa1;" horiz-adv-x="621" 
d="M418 1169l-158 -1208h-119l158 1208h119zM285 1395q0 43 29.5 72.5t72.5 29.5t72.5 -29.5t29.5 -72.5t-29.5 -73t-72.5 -30t-72.5 30t-29.5 73z" />
    <glyph glyph-name="cent" unicode="&#xa2;" horiz-adv-x="1147" 
d="M500 119l94 727q-149 -28 -235.5 -133.5t-86.5 -261.5q0 -125 58.5 -210t169.5 -122zM840 63q-66 -33 -129 -49t-129 -16h-23l-27 -203h-75l26 213q-156 32 -249 148t-93 278q0 215 128 357.5t339 162.5l23 170h78l-23 -169q75 -5 141.5 -27.5t124.5 -63.5l-30 -112
q-64 46 -126 70.5t-124 27.5l-99 -744q6 0 16 -1t15 -1q65 0 129 26t131 79z" />
    <glyph glyph-name="sterling" unicode="&#xa3;" horiz-adv-x="1147" 
d="M57 66q18 26 52.5 53t97.5 63q63 78 90 147t27 152q0 29 -7 105q-1 9 -2 14h-252l11 84h221q-45 111 -62.5 183.5t-17.5 140.5q0 198 137.5 333.5t337.5 135.5q194 0 305 -110t111 -302q0 -25 -0.5 -37.5t-1.5 -23.5h-123v28q0 158 -76 245t-213 87q-146 0 -248 -106.5
t-102 -258.5q0 -74 56 -252q13 -41 20 -63h405l-10 -84h-374q2 -22 3.5 -43.5t1.5 -42.5q0 -98 -33.5 -177t-106.5 -154q14 2 29.5 3.5t31.5 1.5q30 0 62.5 -5.5t68.5 -16.5q26 -9 119.5 -50.5t152.5 -41.5q49 0 96 23t127 91l76 -77q-75 -77 -149.5 -113.5t-155.5 -36.5
q-63 0 -182 45q-4 1 -6 2q-15 6 -42 17q-134 55 -213 55q-52 0 -105.5 -25.5t-111.5 -79.5z" />
    <glyph glyph-name="currency" unicode="&#xa4;" horiz-adv-x="1241" 
d="M954 887q0 137 -96.5 233.5t-234.5 96.5t-235 -97t-97 -233q0 -138 97 -235t235 -97q137 0 234 97t97 235zM358 1204q60 48 125 71t138 23q72 0 138 -23.5t126 -70.5l205 207l59 -59l-207 -205q45 -58 68.5 -124.5t23.5 -137.5q0 -73 -23 -138.5t-69 -123.5l207 -205
l-59 -60l-205 207q-58 -45 -125 -68.5t-139 -23.5q-74 0 -139 23t-124 69l-206 -207l-58 60l207 205q-45 57 -68.5 123.5t-23.5 138.5q0 71 23.5 137.5t68.5 124.5l-207 205l58 59z" />
    <glyph glyph-name="yen" unicode="&#xa5;" horiz-adv-x="1147" 
d="M418 0l82 623h-498l10 94h475l-90 176h-360l12 96h297l-235 463h129l335 -676l467 676h132l-318 -463h297l-12 -96h-353l-126 -176h456l-12 -94h-479l-82 -623h-127z" />
    <glyph glyph-name="brokenbar" unicode="&#xa6;" 
d="M557 408v-758h-90v758h90zM557 1432v-758h-90v758h90z" />
    <glyph glyph-name="section" unicode="&#xa7;" horiz-adv-x="1042" 
d="M213 551q0 -117 70 -185.5t188 -68.5q129 0 208 78.5t79 208.5q0 116 -70.5 188t-185.5 72q-128 0 -208.5 -81.5t-80.5 -211.5zM162 -25v-24q0 -125 59 -189.5t172 -64.5q107 0 171.5 64.5t64.5 170.5q0 90 -52 148t-194 119q-161 68 -224 145t-63 197q0 148 85 247
t235 125q-90 43 -136.5 109t-46.5 152q0 141 98.5 234t248.5 93q154 0 241.5 -89.5t87.5 -248.5v-30h-108v18q0 119 -58.5 183.5t-167.5 64.5q-100 0 -164.5 -59.5t-64.5 -151.5q0 -83 51.5 -138t194.5 -114q161 -67 225 -147t64 -205q0 -148 -82.5 -239.5t-243.5 -125.5
q95 -41 142.5 -111t47.5 -167q0 -151 -98 -249t-252 -98q-169 0 -259.5 92.5t-90.5 266.5v22h117z" />
    <glyph glyph-name="dieresis" unicode="&#xa8;" 
d="M326 1190q0 32 27 59t61 27q35 0 60.5 -25.5t25.5 -60.5q0 -38 -24.5 -63t-61.5 -25q-36 0 -62 26t-26 62zM647 1190q0 32 27.5 59t60.5 27q36 0 61 -25.5t25 -60.5q0 -38 -24.5 -63t-61.5 -25q-36 0 -62 26t-26 62z" />
    <glyph glyph-name="copyright" unicode="&#xa9;" horiz-adv-x="1706" 
d="M1081 918q-20 81 -79.5 126.5t-147.5 45.5q-126 0 -196 -97.5t-70 -273.5q0 -169 71.5 -267t194.5 -98q91 0 156 52.5t84 140.5h102q-11 -123 -108 -201t-240 -78q-173 0 -275 123.5t-102 333.5q0 205 107 328t282 123q132 0 222.5 -72t103.5 -186h-105zM1511 721
q0 133 -49 252.5t-141 212.5q-95 95 -215 144.5t-254 49.5q-133 0 -251.5 -49t-209.5 -141q-95 -97 -145.5 -218t-50.5 -251t50 -249.5t144 -213.5t213.5 -144.5t249.5 -50.5t251.5 51t217.5 146q93 92 141.5 209.5t48.5 251.5zM852 1452q149 0 282.5 -55t237.5 -160
q103 -102 157 -235t54 -281q0 -150 -53.5 -280t-157.5 -232q-107 -106 -241.5 -162.5t-278.5 -56.5q-145 0 -277 55.5t-237 161.5q-105 104 -160 236t-55 278q0 145 56 279t161 241q101 103 232 157t280 54z" />
    <glyph glyph-name="ordfeminine" unicode="&#xaa;" horiz-adv-x="821" 
d="M342 889q104 0 173 82t69 209q0 107 -56.5 172t-148.5 65q-106 0 -176 -81.5t-70 -207.5q0 -109 57 -174t152 -65zM713 1464l-88 -620h-88l14 94q-41 -61 -99 -91t-135 -30q-122 0 -199 87.5t-77 228.5q0 152 94.5 253t237.5 101q85 0 142 -36t91 -112l19 125h88z" />
    <glyph glyph-name="guillemotleft" unicode="&#xab;" horiz-adv-x="915" 
d="M651 23l-260 419l365 418l69 -67l-311 -365l217 -350zM305 25l-260 421l365 416l69 -67l-311 -363l217 -352z" />
    <glyph glyph-name="logicalnot" unicode="&#xac;" horiz-adv-x="1706" 
d="M1452 856v-502h-78v420h-1120v82h1198z" />
    <glyph glyph-name="uni00AD" unicode="&#xad;" horiz-adv-x="616" 
d="M55 496h437l-15 -111h-436z" />
    <glyph glyph-name="registered" unicode="&#xae;" horiz-adv-x="1706" 
d="M852 1077h-168v-313h168q145 0 199.5 36t54.5 126q0 78 -61.5 114.5t-192.5 36.5zM874 1155q180 0 264.5 -56.5t84.5 -176.5q0 -89 -55.5 -149t-147.5 -71l190 -393h-131l-182 377h-213v-377h-115v846h305zM1511 721q0 133 -49 252.5t-141 212.5q-95 95 -215 144.5
t-254 49.5q-133 0 -251.5 -49t-209.5 -141q-95 -97 -145.5 -218t-50.5 -251t50 -249.5t144 -213.5t213.5 -144.5t249.5 -50.5t251.5 51t217.5 146q93 92 141.5 209.5t48.5 251.5zM852 1452q149 0 282.5 -55t237.5 -160q103 -102 157 -235t54 -281q0 -150 -53.5 -280
t-157.5 -232q-107 -106 -241.5 -162.5t-278.5 -56.5q-145 0 -277 55.5t-237 161.5q-105 104 -160 236t-55 278q0 145 56 279t161 241q101 103 232 157t280 54z" />
    <glyph glyph-name="macron" unicode="&#xaf;" 
d="M313 1130l15 117h512l-15 -117h-512z" />
    <glyph glyph-name="degree" unicode="&#xb0;" horiz-adv-x="674" 
d="M551 1176q0 87 -63 150t-150 63q-89 0 -151 -62t-62 -151t62.5 -151t150.5 -62t150.5 62t62.5 151zM338 1450q112 0 192 -80.5t80 -193.5q0 -114 -80 -193.5t-194 -79.5q-115 0 -194 79t-79 194q0 114 80.5 194t194.5 80z" />
    <glyph glyph-name="plusminus" unicode="&#xb1;" horiz-adv-x="1706" 
d="M1452 141v-82h-1198v82h1198zM893 1161v-354h559v-80h-559v-352h-80v352h-559v80h559v354h80z" />
    <glyph glyph-name="uni00B2" unicode="&#xb2;" horiz-adv-x="758" 
d="M2 575l346 291q166 139 218 212t52 147q0 83 -55 127.5t-157 44.5q-98 0 -160.5 -58t-67.5 -153h-80q7 131 90 204.5t226 73.5q135 0 211.5 -62.5t76.5 -172.5q0 -169 -320 -432l-26 -21l-163 -131h425l-10 -70h-606z" />
    <glyph glyph-name="uni00B3" unicode="&#xb3;" horiz-adv-x="758" 
d="M117 796q9 -84 64 -131t147 -47q106 0 170.5 56.5t64.5 148.5q0 81 -62.5 124.5t-178.5 43.5h-15l10 68h37q122 0 189 48.5t67 135.5q0 70 -53.5 112t-142.5 42q-83 0 -138 -41t-63 -109h-88q15 96 95.5 155.5t195.5 59.5q123 0 198.5 -59.5t75.5 -155.5q0 -86 -55 -145
t-158 -82q82 -20 126 -72t44 -127q0 -119 -88 -193.5t-229 -74.5q-133 0 -209 63.5t-82 180.5z" />
    <glyph glyph-name="acute" unicode="&#xb4;" 
d="M514 1030h-92l244 350h147z" />
    <glyph glyph-name="mu" unicode="&#xb5;" horiz-adv-x="1094" 
d="M326 1063l-123 -590q-9 -43 -13 -77t-4 -64q0 -126 60 -192t174 -66q127 0 219.5 109t136.5 313l125 567h121l-166 -786q-2 -9 -5 -24q-20 -92 -20 -112q0 -31 17.5 -47t50.5 -16q9 0 18.5 0.5t20.5 1.5l-18 -96q-3 -1 -8 -2q-49 -11 -68 -11q-68 0 -100.5 31.5
t-32.5 95.5q0 7 0.5 16t3.5 29q-43 -83 -123.5 -127.5t-188.5 -44.5q-97 0 -169.5 45.5t-104.5 126.5l-119 -567h-121l316 1487h121z" />
    <glyph glyph-name="paragraph" unicode="&#xb6;" 
d="M932 1415h-129v-1415h-70v1415h-192v-1415h-70v782q-175 8 -278 102.5t-103 245.5q0 157 108.5 253t286.5 96h447v-64z" />
    <glyph glyph-name="periodcentered" unicode="&#xb7;" horiz-adv-x="573" 
d="M184 719q0 43 30 72.5t73 29.5t72.5 -29.5t29.5 -72.5t-29.5 -73t-72.5 -30t-73 30t-30 73z" />
    <glyph glyph-name="cedilla" unicode="&#xb8;" 
d="M160 -416l26 78q67 -19 120 -29t91 -10q68 0 105 29t37 82q0 47 -39.5 67.5t-130.5 20.5h-31l59 178h66l-37 -111h20q101 0 153 -39.5t52 -115.5q0 -92 -62.5 -143.5t-174.5 -51.5q-55 0 -116.5 11t-137.5 34z" />
    <glyph glyph-name="uni00B9" unicode="&#xb9;" horiz-adv-x="758" 
d="M285 575l118 805h-174l33 66h232l-125 -871h-84z" />
    <glyph glyph-name="ordmasculine" unicode="&#xba;" horiz-adv-x="840" 
d="M408 1411q-121 0 -200 -78.5t-79 -199.5q0 -107 68 -173.5t178 -66.5q119 0 198.5 79.5t79.5 198.5q0 105 -69 172.5t-176 67.5zM35 1128q0 155 107 257t270 102q149 0 243.5 -86t94.5 -221q0 -159 -106.5 -261t-270.5 -102q-153 0 -245.5 85.5t-92.5 225.5z" />
    <glyph glyph-name="guillemotright" unicode="&#xbb;" horiz-adv-x="915" 
d="M188 860l261 -422l-363 -415l-70 65l310 365l-217 352zM535 858l260 -422l-363 -416l-70 66l310 365l-217 350z" />
    <glyph glyph-name="onequarter" unicode="&#xbc;" horiz-adv-x="1788" 
d="M1499 262l66 395l-363 -395h297zM1460 0l33 201h-426l596 639l-86 -578h98l-8 -61h-98l-31 -201h-78zM475 -39h-94l930 1518h94zM272 633l113 751h-166l31 60h221l-121 -811h-78z" />
    <glyph glyph-name="onehalf" unicode="&#xbd;" horiz-adv-x="1788" 
d="M1067 0l332 270q162 136 210 202.5t48 133.5q0 77 -53.5 119.5t-151.5 42.5q-92 0 -152 -54.5t-65 -143.5l-76 -1q6 124 85 192t216 68q129 0 202 -58t73 -161q0 -158 -309 -404l-21 -18l-156 -125h406l-8 -63h-580zM475 -39h-94l930 1518h94zM272 633l113 751h-166
l31 60h221l-121 -811h-78z" />
    <glyph glyph-name="threequarters" unicode="&#xbe;" horiz-adv-x="1788" 
d="M1499 262l66 395l-363 -395h297zM1460 0l33 201h-426l596 639l-86 -578h98l-8 -61h-98l-31 -201h-78zM475 -39h-94l930 1518h94zM113 840q7 -79 59 -122.5t139 -43.5q103 0 165.5 52t62.5 138q0 76 -59.5 116t-172.5 40h-14l10 65q7 -1 14 -1.5t21 -0.5q116 0 180 46
t64 128q0 66 -51 105t-136 39q-80 0 -132 -38.5t-60 -102.5h-82q14 89 90 144.5t184 55.5q119 0 191.5 -55.5t72.5 -144.5q0 -81 -52.5 -136t-151.5 -77q79 -19 121 -67t42 -118q0 -111 -83.5 -181.5t-219.5 -70.5q-127 0 -199.5 60t-78.5 170h76z" />
    <glyph glyph-name="questiondown" unicode="&#xbf;" horiz-adv-x="1014" 
d="M217 897q34 128 113.5 190t210.5 62q137 0 221 -73.5t84 -192.5q0 -97 -59 -170t-173 -117q-274 -103 -341.5 -164.5t-67.5 -152.5q0 -95 66 -153t175 -58q105 0 173 59.5t100 179.5l117 -31q-42 -155 -145 -236t-259 -81t-252 92t-96 242q0 104 71 190t200 136
q23 9 66 26q306 118 306 240q0 72 -51 115.5t-135 43.5q-83 0 -133.5 -42t-73.5 -132zM707 1395q0 -43 -30 -73t-73 -30t-72.5 30t-29.5 73t29.5 72.5t72.5 29.5t73 -29.5t30 -72.5z" />
    <glyph glyph-name="Agrave" unicode="&#xc0;" horiz-adv-x="1176" 
d="M862 586l-182 641l-354 -641h536zM-147 0l864 1499l452 -1499h-137l-139 479h-631l-270 -479h-139zM840 1608h-90l-281 350h147z" />
    <glyph glyph-name="Aacute" unicode="&#xc1;" horiz-adv-x="1176" 
d="M862 586l-182 641l-354 -641h536zM-147 0l864 1499l452 -1499h-137l-139 479h-631l-270 -479h-139zM684 1608h-92l244 350h147z" />
    <glyph glyph-name="Acircumflex" unicode="&#xc2;" horiz-adv-x="1176" 
d="M862 586l-182 641l-354 -641h536zM-147 0l864 1499l452 -1499h-137l-139 479h-631l-270 -479h-139zM993 1608h-82l-145 248l-234 -248h-92l267 350h133z" />
    <glyph glyph-name="Atilde" unicode="&#xc3;" horiz-adv-x="1176" 
d="M862 586l-182 641l-354 -641h536zM-147 0l864 1499l452 -1499h-137l-139 479h-631l-270 -479h-139zM1026 1868q-33 -96 -77 -138t-111 -42q-15 0 -32 2.5t-35 7.5l-95 29q-4 1 -10 3q-22 7 -35 7q-30 0 -53 -20t-37 -58h-80q38 103 81 145t107 42q16 0 29.5 -2t26.5 -6
l91 -29q4 -1 11 -3q33 -9 47 -9q34 0 56 17t36 54h80z" />
    <glyph glyph-name="Adieresis" unicode="&#xc4;" horiz-adv-x="1176" 
d="M862 586l-182 641l-354 -641h536zM-147 0l864 1499l452 -1499h-137l-139 479h-631l-270 -479h-139zM496 1768q0 32 27 59t61 27q35 0 60.5 -25.5t25.5 -60.5q0 -38 -24.5 -63t-61.5 -25q-36 0 -62 26t-26 62zM817 1768q0 32 27.5 59t60.5 27q36 0 61 -25.5t25 -60.5
q0 -38 -24.5 -63t-61.5 -25q-36 0 -62 26t-26 62z" />
    <glyph glyph-name="Aring" unicode="&#xc5;" horiz-adv-x="1176" 
d="M571 1739q0 -60 44 -104t104 -44q62 0 105.5 43.5t43.5 104.5t-43.5 104t-105.5 43t-105 -43t-43 -104zM487 1739q0 97 67.5 164t164.5 67t165 -67.5t68 -163.5q0 -97 -68 -164.5t-165 -67.5q-95 0 -163.5 68.5t-68.5 163.5zM-147 0l841 1464h31l444 -1464h-137l-139 479
h-631l-270 -479h-139zM862 586l-182 641l-354 -641h536z" />
    <glyph glyph-name="AE" unicode="&#xc6;" horiz-adv-x="1757" 
d="M864 633l-141 602l-324 -602h465zM-94 0l817 1464h688l23 -112h-627l123 -480h614l29 -110h-615l164 -647h615l28 -115h-741l-133 520h-551l-295 -520h-139z" />
    <glyph glyph-name="Ccedilla" unicode="&#xc7;" horiz-adv-x="1421" 
d="M1415 1335l-35 -135q-85 94 -199 140t-257 46q-142 0 -262.5 -48t-210.5 -140q-102 -103 -156.5 -239.5t-54.5 -286.5q0 -273 165.5 -434.5t446.5 -161.5q93 0 199.5 33.5t228.5 101.5l-35 -154q-120 -49 -224 -72.5t-202 -23.5q-321 0 -517 197t-196 518q0 177 63.5 333
t180.5 269q112 107 259.5 163t318.5 56q146 0 266.5 -40t220.5 -122zM533 -416l26 78q67 -19 120 -29t91 -10q68 0 105 29t37 82q0 47 -39.5 67.5t-130.5 20.5h-31l59 178h66l-37 -111h20q101 0 153 -39.5t52 -115.5q0 -92 -62.5 -143.5t-174.5 -51.5q-55 0 -116.5 11
t-137.5 34z" />
    <glyph glyph-name="Egrave" unicode="&#xc8;" horiz-adv-x="1042" 
d="M82 0l192 1464h721l-14 -112h-596l-63 -480h579l-14 -110h-580l-84 -647h611l-17 -115h-735zM770 1608h-90l-281 350h147z" />
    <glyph glyph-name="Eacute" unicode="&#xc9;" horiz-adv-x="1042" 
d="M82 0l192 1464h721l-14 -112h-596l-63 -480h579l-14 -110h-580l-84 -647h611l-17 -115h-735zM614 1608h-92l244 350h147z" />
    <glyph glyph-name="Ecircumflex" unicode="&#xca;" horiz-adv-x="1042" 
d="M82 0l192 1464h721l-14 -112h-596l-63 -480h579l-14 -110h-580l-84 -647h611l-17 -115h-735zM923 1608h-82l-145 248l-234 -248h-92l267 350h133z" />
    <glyph glyph-name="Edieresis" unicode="&#xcb;" horiz-adv-x="1042" 
d="M82 0l192 1464h721l-14 -112h-596l-63 -480h579l-14 -110h-580l-84 -647h611l-17 -115h-735zM426 1768q0 32 27 59t61 27q35 0 60.5 -25.5t25.5 -60.5q0 -38 -24.5 -63t-61.5 -25q-36 0 -62 26t-26 62zM747 1768q0 32 27.5 59t60.5 27q36 0 61 -25.5t25 -60.5
q0 -38 -24.5 -63t-61.5 -25q-36 0 -62 26t-26 62z" />
    <glyph glyph-name="Igrave" unicode="&#xcc;" horiz-adv-x="494" 
d="M86 0l195 1464h125l-193 -1464h-127zM463 1608h-90l-281 350h147z" />
    <glyph glyph-name="Iacute" unicode="&#xcd;" horiz-adv-x="494" 
d="M86 0l195 1464h125l-193 -1464h-127zM307 1608h-92l244 350h147z" />
    <glyph glyph-name="Icircumflex" unicode="&#xce;" horiz-adv-x="494" 
d="M86 0l195 1464h125l-193 -1464h-127zM616 1608h-82l-145 248l-234 -248h-92l267 350h133z" />
    <glyph glyph-name="Idieresis" unicode="&#xcf;" horiz-adv-x="494" 
d="M86 0l195 1464h125l-193 -1464h-127zM119 1768q0 32 27 59t61 27q35 0 60.5 -25.5t25.5 -60.5q0 -38 -24.5 -63t-61.5 -25q-36 0 -62 26t-26 62zM440 1768q0 32 27.5 59t60.5 27q36 0 61 -25.5t25 -60.5q0 -38 -24.5 -63t-61.5 -25q-36 0 -62 26t-26 62z" />
    <glyph glyph-name="Eth" unicode="&#xd0;" horiz-adv-x="1413" 
d="M92 0l101 758h-199l12 100h199l80 606h194q262 0 375 -29t205 -98q120 -90 184 -234t64 -323q0 -158 -48.5 -297.5t-140.5 -242.5q-67 -75 -148.5 -126.5t-176.5 -78.5q-65 -18 -137.5 -26.5t-180.5 -8.5h-141h-242zM229 109h95q284 0 401.5 27t202.5 91q116 89 181 234
t65 319q0 151 -51.5 270t-149.5 197q-74 59 -174 84t-301 25h-103l-65 -498h438l-12 -100h-441z" />
    <glyph glyph-name="Ntilde" unicode="&#xd1;" horiz-adv-x="1516" 
d="M82 0l199 1503l876 -1224l156 1185h121l-199 -1503l-875 1223l-155 -1184h-123zM1159 1868q-33 -96 -77 -138t-111 -42q-15 0 -32 2.5t-35 7.5l-95 29q-4 1 -10 3q-22 7 -35 7q-30 0 -53 -20t-37 -58h-80q38 103 81 145t107 42q16 0 29.5 -2t26.5 -6l91 -29q4 -1 11 -3
q33 -9 47 -9q34 0 56 17t36 54h80z" />
    <glyph glyph-name="Ograve" unicode="&#xd2;" horiz-adv-x="1761" 
d="M1522 788q0 268 -165 433t-433 165q-136 0 -258.5 -49.5t-214.5 -142.5q-103 -104 -157 -238.5t-54 -283.5q0 -268 163.5 -432t430.5 -164q138 0 261 49.5t218 144.5q100 101 154.5 235.5t54.5 282.5zM928 1497q331 0 529 -194t198 -519q0 -175 -64 -329.5t-184 -268.5
q-113 -108 -266 -166.5t-324 -58.5q-318 0 -514.5 197.5t-196.5 515.5q0 179 63.5 336t180.5 268q110 106 260 162.5t318 56.5zM1059 1608h-90l-281 350h147z" />
    <glyph glyph-name="Oacute" unicode="&#xd3;" horiz-adv-x="1761" 
d="M1522 788q0 268 -165 433t-433 165q-136 0 -258.5 -49.5t-214.5 -142.5q-103 -104 -157 -238.5t-54 -283.5q0 -268 163.5 -432t430.5 -164q138 0 261 49.5t218 144.5q100 101 154.5 235.5t54.5 282.5zM928 1497q331 0 529 -194t198 -519q0 -175 -64 -329.5t-184 -268.5
q-113 -108 -266 -166.5t-324 -58.5q-318 0 -514.5 197.5t-196.5 515.5q0 179 63.5 336t180.5 268q110 106 260 162.5t318 56.5zM903 1608h-92l244 350h147z" />
    <glyph glyph-name="Ocircumflex" unicode="&#xd4;" horiz-adv-x="1761" 
d="M1522 788q0 268 -165 433t-433 165q-136 0 -258.5 -49.5t-214.5 -142.5q-103 -104 -157 -238.5t-54 -283.5q0 -268 163.5 -432t430.5 -164q138 0 261 49.5t218 144.5q100 101 154.5 235.5t54.5 282.5zM928 1497q331 0 529 -194t198 -519q0 -175 -64 -329.5t-184 -268.5
q-113 -108 -266 -166.5t-324 -58.5q-318 0 -514.5 197.5t-196.5 515.5q0 179 63.5 336t180.5 268q110 106 260 162.5t318 56.5zM1212 1608h-82l-145 248l-234 -248h-92l267 350h133z" />
    <glyph glyph-name="Otilde" unicode="&#xd5;" horiz-adv-x="1761" 
d="M1522 788q0 268 -165 433t-433 165q-136 0 -258.5 -49.5t-214.5 -142.5q-103 -104 -157 -238.5t-54 -283.5q0 -268 163.5 -432t430.5 -164q138 0 261 49.5t218 144.5q100 101 154.5 235.5t54.5 282.5zM928 1497q331 0 529 -194t198 -519q0 -175 -64 -329.5t-184 -268.5
q-113 -108 -266 -166.5t-324 -58.5q-318 0 -514.5 197.5t-196.5 515.5q0 179 63.5 336t180.5 268q110 106 260 162.5t318 56.5zM1245 1868q-33 -96 -77 -138t-111 -42q-15 0 -32 2.5t-35 7.5l-95 29q-4 1 -10 3q-22 7 -35 7q-30 0 -53 -20t-37 -58h-80q38 103 81 145t107 42
q16 0 29.5 -2t26.5 -6l91 -29q4 -1 11 -3q33 -9 47 -9q34 0 56 17t36 54h80z" />
    <glyph glyph-name="Odieresis" unicode="&#xd6;" horiz-adv-x="1761" 
d="M1522 788q0 268 -165 433t-433 165q-136 0 -258.5 -49.5t-214.5 -142.5q-103 -104 -157 -238.5t-54 -283.5q0 -268 163.5 -432t430.5 -164q138 0 261 49.5t218 144.5q100 101 154.5 235.5t54.5 282.5zM928 1497q331 0 529 -194t198 -519q0 -175 -64 -329.5t-184 -268.5
q-113 -108 -266 -166.5t-324 -58.5q-318 0 -514.5 197.5t-196.5 515.5q0 179 63.5 336t180.5 268q110 106 260 162.5t318 56.5zM715 1768q0 32 27 59t61 27q35 0 60.5 -25.5t25.5 -60.5q0 -38 -24.5 -63t-61.5 -25q-36 0 -62 26t-26 62zM1036 1768q0 32 27.5 59t60.5 27
q36 0 61 -25.5t25 -60.5q0 -38 -24.5 -63t-61.5 -25q-36 0 -62 26t-26 62z" />
    <glyph glyph-name="multiply" unicode="&#xd7;" horiz-adv-x="1706" 
d="M854 668l487 487l58 -57l-488 -488l488 -487l-58 -57l-487 487l-487 -487l-58 57l488 487l-488 488l58 57z" />
    <glyph glyph-name="Oslash" unicode="&#xd8;" horiz-adv-x="1761" 
d="M121 -49l-55 61l196 191q-80 81 -119 194.5t-39 264.5q0 186 63.5 345t184.5 277q114 109 262 166t318 57q155 0 281.5 -44.5t220.5 -131.5l170 164l55 -63l-168 -160q81 -98 121.5 -220t40.5 -268q0 -178 -63 -332.5t-183 -269.5q-112 -108 -263 -165.5t-325 -57.5
q-156 0 -281.5 46t-218.5 136zM412 229q75 -76 183 -115.5t243 -39.5q138 0 259.5 49.5t215.5 144.5q100 101 154.5 236.5t54.5 288.5q0 111 -31.5 208.5t-93.5 180.5zM356 293l985 950q-76 75 -181.5 113.5t-233.5 38.5q-139 0 -260.5 -50t-214.5 -145
q-105 -106 -157 -242.5t-52 -304.5q0 -107 28.5 -196.5t85.5 -163.5z" />
    <glyph glyph-name="Ugrave" unicode="&#xd9;" horiz-adv-x="1384" 
d="M387 1464l-119 -901q-5 -37 -7.5 -71t-2.5 -68q0 -167 90.5 -259.5t253.5 -92.5q118 0 207.5 41.5t148.5 124.5q79 107 118 405q4 25 5 36l103 785h125l-109 -823q-2 -19 -7 -58q-38 -300 -128 -417q-76 -101 -197.5 -155t-273.5 -54q-219 0 -340 114t-121 320
q0 52 7 125.5t24 198.5l98 749h125zM908 1608h-90l-281 350h147z" />
    <glyph glyph-name="Uacute" unicode="&#xda;" horiz-adv-x="1384" 
d="M387 1464l-119 -901q-5 -37 -7.5 -71t-2.5 -68q0 -167 90.5 -259.5t253.5 -92.5q118 0 207.5 41.5t148.5 124.5q79 107 118 405q4 25 5 36l103 785h125l-109 -823q-2 -19 -7 -58q-38 -300 -128 -417q-76 -101 -197.5 -155t-273.5 -54q-219 0 -340 114t-121 320
q0 52 7 125.5t24 198.5l98 749h125zM752 1608h-92l244 350h147z" />
    <glyph glyph-name="Ucircumflex" unicode="&#xdb;" horiz-adv-x="1384" 
d="M387 1464l-119 -901q-5 -37 -7.5 -71t-2.5 -68q0 -167 90.5 -259.5t253.5 -92.5q118 0 207.5 41.5t148.5 124.5q79 107 118 405q4 25 5 36l103 785h125l-109 -823q-2 -19 -7 -58q-38 -300 -128 -417q-76 -101 -197.5 -155t-273.5 -54q-219 0 -340 114t-121 320
q0 52 7 125.5t24 198.5l98 749h125zM1061 1608h-82l-145 248l-234 -248h-92l267 350h133z" />
    <glyph glyph-name="Udieresis" unicode="&#xdc;" horiz-adv-x="1384" 
d="M387 1464l-119 -901q-5 -37 -7.5 -71t-2.5 -68q0 -167 90.5 -259.5t253.5 -92.5q118 0 207.5 41.5t148.5 124.5q79 107 118 405q4 25 5 36l103 785h125l-109 -823q-2 -19 -7 -58q-38 -300 -128 -417q-76 -101 -197.5 -155t-273.5 -54q-219 0 -340 114t-121 320
q0 52 7 125.5t24 198.5l98 749h125zM564 1768q0 32 27 59t61 27q35 0 60.5 -25.5t25.5 -60.5q0 -38 -24.5 -63t-61.5 -25q-36 0 -62 26t-26 62zM885 1768q0 32 27.5 59t60.5 27q36 0 61 -25.5t25 -60.5q0 -38 -24.5 -63t-61.5 -25q-36 0 -62 26t-26 62z" />
    <glyph glyph-name="Yacute" unicode="&#xdd;" horiz-adv-x="1014" 
d="M346 0l90 684l-395 780h137l330 -661l455 661h141l-541 -786l-90 -678h-127zM567 1608h-92l244 350h147z" />
    <glyph glyph-name="Thorn" unicode="&#xde;" horiz-adv-x="1034" 
d="M418 1036h-76l-74 -557h150q112 0 165 8.5t93 28.5q72 34 111.5 104t39.5 162q0 73 -27 127t-79 84q-37 23 -88 33t-160 10h-55zM252 371l-45 -371h-125l192 1464h125l-43 -313h80q179 0 256 -19.5t135 -64.5q64 -50 97.5 -122t33.5 -159q0 -104 -38 -186.5t-113 -140.5
q-61 -48 -144 -68t-262 -20h-65h-84z" />
    <glyph glyph-name="germandbls" unicode="&#xdf;" horiz-adv-x="1065" 
d="M72 0l102 778h-149l14 103h149l29 225l1 9q36 265 114 347q48 53 114 80t148 27q167 0 259.5 -100.5t92.5 -280.5q0 -135 -77 -233t-207 -128q141 -38 208.5 -130.5t67.5 -247.5q0 -218 -106.5 -353t-278.5 -135q-36 0 -80 8t-104 25l6 115q36 -19 73 -28t72 -9
q132 0 213.5 98.5t81.5 259.5q0 171 -87 257.5t-259 86.5h-25l15 109h35q158 0 241.5 80t83.5 233q0 130 -57.5 198t-167.5 68q-119 0 -175 -77.5t-91 -348.5l-135 -1036h-121z" />
    <glyph glyph-name="agrave" unicode="&#xe0;" horiz-adv-x="1096" 
d="M457 63q137 0 229 118t92 298q0 153 -75.5 246.5t-198.5 93.5q-140 0 -233 -116.5t-93 -296.5q0 -157 76 -250t203 -93zM950 887l-116 -887h-119l18 133q-55 -86 -132.5 -129t-176.5 -43q-163 0 -267 126t-104 325q0 218 126 363t317 145q114 0 190 -51.5t121 -159.5
l24 178h119zM682 1030h-90l-281 350h147z" />
    <glyph glyph-name="aacute" unicode="&#xe1;" horiz-adv-x="1096" 
d="M457 63q137 0 229 118t92 298q0 153 -75.5 246.5t-198.5 93.5q-140 0 -233 -116.5t-93 -296.5q0 -157 76 -250t203 -93zM950 887l-116 -887h-119l18 133q-55 -86 -132.5 -129t-176.5 -43q-163 0 -267 126t-104 325q0 218 126 363t317 145q114 0 190 -51.5t121 -159.5
l24 178h119zM526 1030h-92l244 350h147z" />
    <glyph glyph-name="acircumflex" unicode="&#xe2;" horiz-adv-x="1096" 
d="M457 63q137 0 229 118t92 298q0 153 -75.5 246.5t-198.5 93.5q-140 0 -233 -116.5t-93 -296.5q0 -157 76 -250t203 -93zM950 887l-116 -887h-119l18 133q-55 -86 -132.5 -129t-176.5 -43q-163 0 -267 126t-104 325q0 218 126 363t317 145q114 0 190 -51.5t121 -159.5
l24 178h119zM835 1030h-82l-145 248l-234 -248h-92l267 350h133z" />
    <glyph glyph-name="atilde" unicode="&#xe3;" horiz-adv-x="1096" 
d="M457 63q137 0 229 118t92 298q0 153 -75.5 246.5t-198.5 93.5q-140 0 -233 -116.5t-93 -296.5q0 -157 76 -250t203 -93zM950 887l-116 -887h-119l18 133q-55 -86 -132.5 -129t-176.5 -43q-163 0 -267 126t-104 325q0 218 126 363t317 145q114 0 190 -51.5t121 -159.5
l24 178h119zM868 1290q-33 -96 -77 -138t-111 -42q-15 0 -32 2.5t-35 7.5l-95 29q-4 1 -10 3q-22 7 -35 7q-30 0 -53 -20t-37 -58h-80q38 103 81 145t107 42q16 0 29.5 -2t26.5 -6l91 -29q4 -1 11 -3q33 -9 47 -9q34 0 56 17t36 54h80z" />
    <glyph glyph-name="adieresis" unicode="&#xe4;" horiz-adv-x="1096" 
d="M457 63q137 0 229 118t92 298q0 153 -75.5 246.5t-198.5 93.5q-140 0 -233 -116.5t-93 -296.5q0 -157 76 -250t203 -93zM950 887l-116 -887h-119l18 133q-55 -86 -132.5 -129t-176.5 -43q-163 0 -267 126t-104 325q0 218 126 363t317 145q114 0 190 -51.5t121 -159.5
l24 178h119zM338 1190q0 32 27 59t61 27q35 0 60.5 -25.5t25.5 -60.5q0 -38 -24.5 -63t-61.5 -25q-36 0 -62 26t-26 62zM659 1190q0 32 27.5 59t60.5 27q36 0 61 -25.5t25 -60.5q0 -38 -24.5 -63t-61.5 -25q-36 0 -62 26t-26 62z" />
    <glyph glyph-name="aring" unicode="&#xe5;" horiz-adv-x="1096" 
d="M424 1217q0 -60 43.5 -104t103.5 -44q62 0 106 43t44 105q0 61 -44 104t-106 43q-61 0 -104 -43t-43 -104zM340 1217q0 96 68 163.5t165 67.5t164.5 -67.5t67.5 -163.5q0 -98 -67.5 -166t-164.5 -68q-95 0 -164 69t-69 165zM457 63q137 0 229 118t92 298
q0 153 -75.5 246.5t-198.5 93.5q-140 0 -233 -116.5t-93 -296.5q0 -157 76 -250t203 -93zM950 887l-116 -887h-119l18 133q-55 -86 -132.5 -129t-176.5 -43q-163 0 -267 126t-104 325q0 218 126 363t317 145q114 0 190 -51.5t121 -159.5l24 178h119z" />
    <glyph glyph-name="ae" unicode="&#xe6;" horiz-adv-x="1622" 
d="M768 526h608q0 141 -69 216t-197 75t-217.5 -76t-124.5 -215zM377 59q116 0 196 60.5t80 146.5q0 84 -71.5 130t-200.5 46q-108 0 -175 -55t-67 -143q0 -83 65.5 -134t172.5 -51zM745 729q68 97 155.5 144t201.5 47q186 0 287.5 -106t101.5 -298q0 -18 -1.5 -41t-5.5 -49
h-728v-18q0 -163 80 -252.5t225 -89.5q88 0 158.5 41t128.5 126l79 -79q-74 -101 -165 -148t-211 -47q-114 0 -202 46.5t-151 139.5q-60 -94 -146.5 -140t-203.5 -46q-149 0 -238.5 78.5t-89.5 208.5q0 123 96 204.5t242 81.5q102 0 171 -22t118 -70l8 92q1 7 2 18
q7 71 7 101q0 85 -55 127.5t-163 42.5q-68 0 -139.5 -17.5t-150.5 -53.5l10 108q75 31 141.5 46.5t124.5 15.5q144 0 222.5 -48t90.5 -143z" />
    <glyph glyph-name="ccedilla" unicode="&#xe7;" horiz-adv-x="909" 
d="M741 27q-63 -33 -123 -49.5t-120 -16.5q-205 0 -329 123t-124 324q0 221 145 366.5t367 145.5q85 0 158 -22.5t139 -68.5l-31 -112q-67 49 -134 72.5t-138 23.5q-165 0 -272 -112.5t-107 -286.5q0 -154 91 -249t239 -95q66 0 129.5 24.5t134.5 77.5zM203 -416l26 78
q67 -19 120 -29t91 -10q68 0 105 29t37 82q0 47 -39.5 67.5t-130.5 20.5h-31l59 178h66l-37 -111h20q101 0 153 -39.5t52 -115.5q0 -92 -62.5 -143.5t-174.5 -51.5q-55 0 -116.5 11t-137.5 34z" />
    <glyph glyph-name="egrave" unicode="&#xe8;" horiz-adv-x="1047" 
d="M803 526q0 139 -68.5 215t-193.5 76q-138 0 -228 -73.5t-129 -217.5h619zM915 426h-743v-23q0 -160 81.5 -248.5t229.5 -88.5q91 0 163.5 41.5t129.5 125.5l82 -79q-73 -99 -164.5 -146t-212.5 -47q-196 0 -315 117t-119 309q0 236 134.5 384.5t346.5 148.5
q188 0 291 -106t103 -298q0 -18 -2 -41.5t-5 -48.5zM666 1030h-90l-281 350h147z" />
    <glyph glyph-name="eacute" unicode="&#xe9;" horiz-adv-x="1047" 
d="M803 526q0 139 -68.5 215t-193.5 76q-138 0 -228 -73.5t-129 -217.5h619zM915 426h-743v-23q0 -160 81.5 -248.5t229.5 -88.5q91 0 163.5 41.5t129.5 125.5l82 -79q-73 -99 -164.5 -146t-212.5 -47q-196 0 -315 117t-119 309q0 236 134.5 384.5t346.5 148.5
q188 0 291 -106t103 -298q0 -18 -2 -41.5t-5 -48.5zM510 1030h-92l244 350h147z" />
    <glyph glyph-name="ecircumflex" unicode="&#xea;" horiz-adv-x="1047" 
d="M803 526q0 139 -68.5 215t-193.5 76q-138 0 -228 -73.5t-129 -217.5h619zM915 426h-743v-23q0 -160 81.5 -248.5t229.5 -88.5q91 0 163.5 41.5t129.5 125.5l82 -79q-73 -99 -164.5 -146t-212.5 -47q-196 0 -315 117t-119 309q0 236 134.5 384.5t346.5 148.5
q188 0 291 -106t103 -298q0 -18 -2 -41.5t-5 -48.5zM819 1030h-82l-145 248l-234 -248h-92l267 350h133z" />
    <glyph glyph-name="edieresis" unicode="&#xeb;" horiz-adv-x="1047" 
d="M803 526q0 139 -68.5 215t-193.5 76q-138 0 -228 -73.5t-129 -217.5h619zM915 426h-743v-23q0 -160 81.5 -248.5t229.5 -88.5q91 0 163.5 41.5t129.5 125.5l82 -79q-73 -99 -164.5 -146t-212.5 -47q-196 0 -315 117t-119 309q0 236 134.5 384.5t346.5 148.5
q188 0 291 -106t103 -298q0 -18 -2 -41.5t-5 -48.5zM322 1190q0 32 27 59t61 27q35 0 60.5 -25.5t25.5 -60.5q0 -38 -24.5 -63t-61.5 -25q-36 0 -62 26t-26 62zM643 1190q0 32 27.5 59t60.5 27q36 0 61 -25.5t25 -60.5q0 -38 -24.5 -63t-61.5 -25q-36 0 -62 26t-26 62z" />
    <glyph glyph-name="igrave" unicode="&#xec;" horiz-adv-x="461" 
d="M76 0l117 887h120l-116 -887h-121zM389 1030h-90l-281 350h147z" />
    <glyph glyph-name="iacute" unicode="&#xed;" horiz-adv-x="461" 
d="M76 0l117 887h120l-116 -887h-121zM233 1030h-92l244 350h147z" />
    <glyph glyph-name="icircumflex" unicode="&#xee;" horiz-adv-x="461" 
d="M76 0l117 887h120l-116 -887h-121zM542 1030h-82l-145 248l-234 -248h-92l267 350h133z" />
    <glyph glyph-name="idieresis" unicode="&#xef;" horiz-adv-x="461" 
d="M76 0l117 887h120l-116 -887h-121zM45 1190q0 32 27 59t61 27q35 0 60.5 -25.5t25.5 -60.5q0 -38 -24.5 -63t-61.5 -25q-36 0 -62 26t-26 62zM366 1190q0 32 27.5 59t60.5 27q36 0 61 -25.5t25 -60.5q0 -38 -24.5 -63t-61.5 -25q-36 0 -62 26t-26 62z" />
    <glyph glyph-name="eth" unicode="&#xf0;" horiz-adv-x="1118" 
d="M532 784q-153 0 -255.5 -109t-102.5 -274q0 -151 91 -243t241 -92q154 0 256 108t102 270q0 153 -91.5 246.5t-240.5 93.5zM901 682v12q0 149 -33.5 278.5t-101.5 239.5l-299 -69l-29 90l269 65q-25 35 -65 74t-105 90l65 84q66 -45 123.5 -100t108.5 -121l249 57l31 -88
l-223 -55q65 -119 97 -259t32 -304q0 -345 -133.5 -531t-380.5 -186q-209 0 -335 120.5t-126 319.5q0 209 140.5 348.5t351.5 139.5q127 0 218 -51t146 -154z" />
    <glyph glyph-name="ntilde" unicode="&#xf1;" horiz-adv-x="1055" 
d="M66 0l116 887h117l-20 -144q69 90 150 133.5t179 43.5q127 0 201 -69t74 -189q0 -21 -2 -46t-7 -53l-73 -563h-121l74 556q3 22 4.5 42.5t1.5 42.5q0 85 -52 129.5t-151 44.5q-132 0 -210.5 -93.5t-102.5 -279.5l-58 -442h-120zM864 1290q-33 -96 -77 -138t-111 -42
q-15 0 -32 2.5t-35 7.5l-95 29q-4 1 -10 3q-22 7 -35 7q-30 0 -53 -20t-37 -58h-80q38 103 81 145t107 42q16 0 29.5 -2t26.5 -6l91 -29q4 -1 11 -3q33 -9 47 -9q34 0 56 17t36 54h80z" />
    <glyph glyph-name="ograve" unicode="&#xf2;" horiz-adv-x="1118" 
d="M543 811q-161 0 -266 -113t-105 -286q0 -152 91 -247t237 -95q159 0 264.5 114t105.5 285q0 150 -92 246t-235 96zM45 406q0 221 143.5 367.5t360.5 146.5q199 0 324.5 -123.5t125.5 -317.5q0 -225 -141.5 -371.5t-359.5 -146.5q-204 0 -328.5 122.5t-124.5 322.5z
M682 1030h-90l-281 350h147z" />
    <glyph glyph-name="oacute" unicode="&#xf3;" horiz-adv-x="1118" 
d="M543 811q-161 0 -266 -113t-105 -286q0 -152 91 -247t237 -95q159 0 264.5 114t105.5 285q0 150 -92 246t-235 96zM45 406q0 221 143.5 367.5t360.5 146.5q199 0 324.5 -123.5t125.5 -317.5q0 -225 -141.5 -371.5t-359.5 -146.5q-204 0 -328.5 122.5t-124.5 322.5z
M526 1030h-92l244 350h147z" />
    <glyph glyph-name="ocircumflex" unicode="&#xf4;" horiz-adv-x="1118" 
d="M543 811q-161 0 -266 -113t-105 -286q0 -152 91 -247t237 -95q159 0 264.5 114t105.5 285q0 150 -92 246t-235 96zM45 406q0 221 143.5 367.5t360.5 146.5q199 0 324.5 -123.5t125.5 -317.5q0 -225 -141.5 -371.5t-359.5 -146.5q-204 0 -328.5 122.5t-124.5 322.5z
M835 1030h-82l-145 248l-234 -248h-92l267 350h133z" />
    <glyph glyph-name="otilde" unicode="&#xf5;" horiz-adv-x="1118" 
d="M543 811q-161 0 -266 -113t-105 -286q0 -152 91 -247t237 -95q159 0 264.5 114t105.5 285q0 150 -92 246t-235 96zM45 406q0 221 143.5 367.5t360.5 146.5q199 0 324.5 -123.5t125.5 -317.5q0 -225 -141.5 -371.5t-359.5 -146.5q-204 0 -328.5 122.5t-124.5 322.5z
M868 1290q-33 -96 -77 -138t-111 -42q-15 0 -32 2.5t-35 7.5l-95 29q-4 1 -10 3q-22 7 -35 7q-30 0 -53 -20t-37 -58h-80q38 103 81 145t107 42q16 0 29.5 -2t26.5 -6l91 -29q4 -1 11 -3q33 -9 47 -9q34 0 56 17t36 54h80z" />
    <glyph glyph-name="odieresis" unicode="&#xf6;" horiz-adv-x="1118" 
d="M543 811q-161 0 -266 -113t-105 -286q0 -152 91 -247t237 -95q159 0 264.5 114t105.5 285q0 150 -92 246t-235 96zM45 406q0 221 143.5 367.5t360.5 146.5q199 0 324.5 -123.5t125.5 -317.5q0 -225 -141.5 -371.5t-359.5 -146.5q-204 0 -328.5 122.5t-124.5 322.5z
M338 1190q0 32 27 59t61 27q35 0 60.5 -25.5t25.5 -60.5q0 -38 -24.5 -63t-61.5 -25q-36 0 -62 26t-26 62zM659 1190q0 32 27.5 59t60.5 27q36 0 61 -25.5t25 -60.5q0 -38 -24.5 -63t-61.5 -25q-36 0 -62 26t-26 62z" />
    <glyph glyph-name="divide" unicode="&#xf7;" horiz-adv-x="1706" 
d="M854 365q41 0 69.5 -29.5t28.5 -71.5q0 -40 -28.5 -69t-69.5 -29t-69.5 28.5t-28.5 69.5t29 71t69 30zM1452 651v-82h-1198v82h1198zM854 1055q41 0 69.5 -28.5t28.5 -70.5q0 -40 -28.5 -70t-69.5 -30t-69.5 29.5t-28.5 70.5t28.5 70t69.5 29z" />
    <glyph glyph-name="oslash" unicode="&#xf8;" horiz-adv-x="1118" 
d="M-20 10l143 127q-40 60 -60 127.5t-20 141.5q0 221 145 367.5t363 146.5q94 0 171 -28t140 -85l135 121l52 -58l-136 -122q44 -63 65 -130t21 -145q0 -222 -141 -366t-360 -144q-104 0 -181.5 28t-144.5 89l-141 -125zM817 662l-553 -496q47 -49 105 -72.5t129 -23.5
q159 0 265.5 112t106.5 277q0 52 -13 102t-40 101zM219 225l551 498q-42 44 -98.5 66t-126.5 22q-160 0 -266.5 -111.5t-106.5 -277.5q0 -60 11.5 -108t35.5 -89z" />
    <glyph glyph-name="ugrave" unicode="&#xf9;" horiz-adv-x="1053" 
d="M176 887h119l-49 -377q-14 -104 -19.5 -157t-5.5 -89q0 -90 59.5 -141t163.5 -51q132 0 199 86t96 303l58 426h118l-57 -436q-24 -177 -50.5 -253t-72.5 -126q-49 -54 -124.5 -82.5t-170.5 -28.5q-157 0 -248.5 77.5t-91.5 211.5q0 41 5 93.5t18 145.5zM684 1030h-90
l-281 350h147z" />
    <glyph glyph-name="uacute" unicode="&#xfa;" horiz-adv-x="1053" 
d="M176 887h119l-49 -377q-14 -104 -19.5 -157t-5.5 -89q0 -90 59.5 -141t163.5 -51q132 0 199 86t96 303l58 426h118l-57 -436q-24 -177 -50.5 -253t-72.5 -126q-49 -54 -124.5 -82.5t-170.5 -28.5q-157 0 -248.5 77.5t-91.5 211.5q0 41 5 93.5t18 145.5zM528 1030h-92
l244 350h147z" />
    <glyph glyph-name="ucircumflex" unicode="&#xfb;" horiz-adv-x="1053" 
d="M176 887h119l-49 -377q-14 -104 -19.5 -157t-5.5 -89q0 -90 59.5 -141t163.5 -51q132 0 199 86t96 303l58 426h118l-57 -436q-24 -177 -50.5 -253t-72.5 -126q-49 -54 -124.5 -82.5t-170.5 -28.5q-157 0 -248.5 77.5t-91.5 211.5q0 41 5 93.5t18 145.5zM837 1030h-82
l-145 248l-234 -248h-92l267 350h133z" />
    <glyph glyph-name="udieresis" unicode="&#xfc;" horiz-adv-x="1053" 
d="M176 887h119l-49 -377q-14 -104 -19.5 -157t-5.5 -89q0 -90 59.5 -141t163.5 -51q132 0 199 86t96 303l58 426h118l-57 -436q-24 -177 -50.5 -253t-72.5 -126q-49 -54 -124.5 -82.5t-170.5 -28.5q-157 0 -248.5 77.5t-91.5 211.5q0 41 5 93.5t18 145.5zM340 1190
q0 32 27 59t61 27q35 0 60.5 -25.5t25.5 -60.5q0 -38 -24.5 -63t-61.5 -25q-36 0 -62 26t-26 62zM661 1190q0 32 27.5 59t60.5 27q36 0 61 -25.5t25 -60.5q0 -38 -24.5 -63t-61.5 -25q-36 0 -62 26t-26 62z" />
    <glyph glyph-name="yacute" unicode="&#xfd;" horiz-adv-x="891" 
d="M86 -446h-131l309 516l-258 817h131l207 -701l404 701h135zM448 1030h-92l244 350h147z" />
    <glyph glyph-name="thorn" unicode="&#xfe;" horiz-adv-x="1096" 
d="M559 819q-137 0 -228 -118t-91 -300q0 -153 75 -246.5t199 -93.5q139 0 232.5 118.5t93.5 297.5q0 156 -77 249t-204 93zM209 172l-82 -618h-121l264 1996h117l-106 -800q54 87 128 129.5t175 42.5q168 0 274.5 -126t106.5 -327q0 -220 -126 -365t-317 -145
q-113 0 -191 53t-122 160z" />
    <glyph glyph-name="ydieresis" unicode="&#xff;" horiz-adv-x="891" 
d="M86 -446h-131l309 516l-258 817h131l207 -701l404 701h135zM260 1190q0 32 27 59t61 27q35 0 60.5 -25.5t25.5 -60.5q0 -38 -24.5 -63t-61.5 -25q-36 0 -62 26t-26 62zM581 1190q0 32 27.5 59t60.5 27q36 0 61 -25.5t25 -60.5q0 -38 -24.5 -63t-61.5 -25q-36 0 -62 26
t-26 62z" />
    <glyph glyph-name="Cacute" unicode="&#x106;" horiz-adv-x="1421" 
d="M1415 1335l-35 -135q-85 94 -199 140t-257 46q-142 0 -262.5 -48t-210.5 -140q-102 -103 -156.5 -239.5t-54.5 -286.5q0 -273 165.5 -434.5t446.5 -161.5q93 0 199.5 33.5t228.5 101.5l-35 -154q-120 -49 -224 -72.5t-202 -23.5q-321 0 -517 197t-196 518q0 177 63.5 333
t180.5 269q112 107 259.5 163t318.5 56q146 0 266.5 -40t220.5 -122zM895 1608h-92l244 350h147z" />
    <glyph glyph-name="cacute" unicode="&#x107;" horiz-adv-x="909" 
d="M741 27q-63 -33 -123 -49.5t-120 -16.5q-205 0 -329 123t-124 324q0 221 145 366.5t367 145.5q85 0 158 -22.5t139 -68.5l-31 -112q-67 49 -134 72.5t-138 23.5q-165 0 -272 -112.5t-107 -286.5q0 -154 91 -249t239 -95q66 0 129.5 24.5t134.5 77.5zM520 1030h-92
l244 350h147z" />
    <glyph glyph-name="Ccaron" unicode="&#x10c;" horiz-adv-x="1421" 
d="M1415 1335l-35 -135q-85 94 -199 140t-257 46q-142 0 -262.5 -48t-210.5 -140q-102 -103 -156.5 -239.5t-54.5 -286.5q0 -273 165.5 -434.5t446.5 -161.5q93 0 199.5 33.5t228.5 101.5l-35 -154q-120 -49 -224 -72.5t-202 -23.5q-321 0 -517 197t-196 518q0 177 63.5 333
t180.5 269q112 107 259.5 163t318.5 56q146 0 266.5 -40t220.5 -122zM703 1958h79l146 -247l235 247h92l-268 -350h-131z" />
    <glyph glyph-name="ccaron" unicode="&#x10d;" horiz-adv-x="909" 
d="M741 27q-63 -33 -123 -49.5t-120 -16.5q-205 0 -329 123t-124 324q0 221 145 366.5t367 145.5q85 0 158 -22.5t139 -68.5l-31 -112q-67 49 -134 72.5t-138 23.5q-165 0 -272 -112.5t-107 -286.5q0 -154 91 -249t239 -95q66 0 129.5 24.5t134.5 77.5zM328 1380h79
l146 -247l235 247h92l-268 -350h-131z" />
    <glyph glyph-name="dcroat" unicode="&#x111;" horiz-adv-x="1096" 
d="M457 63q137 0 229 118.5t92 299.5q0 152 -75.5 246t-198.5 94q-140 0 -233 -117t-93 -296q0 -157 76.5 -251t202.5 -94zM866 1155h-354l12 94h355l41 301h118l-39 -301h236l-12 -94h-238l-149 -1155h-121l18 133q-57 -87 -133 -129.5t-174 -42.5q-163 0 -268 127
t-105 326q0 217 126.5 362.5t318.5 145.5q114 0 188.5 -51t120.5 -162z" />
    <glyph glyph-name="Gbreve" unicode="&#x11e;" horiz-adv-x="1669" 
d="M922 608l14 109h620v-4q0 -349 -196.5 -550.5t-536.5 -201.5q-322 0 -519.5 196.5t-197.5 516.5q0 179 63.5 336t180.5 268q114 109 261 165t319 56q204 0 354.5 -72.5t267.5 -228.5l-88 -82q-102 138 -235 205.5t-303 67.5q-137 0 -259 -50t-216 -145
q-102 -101 -156.5 -237t-54.5 -285q0 -267 161 -431.5t424 -164.5q253 0 416 147t174 385h-493zM711 1917h80v-18q0 -65 38 -99t111 -34q90 0 148 37t92 114h84q-41 -134 -123 -201t-207 -67q-111 0 -168 57.5t-57 167.5q0 17 0.5 26.5t1.5 16.5z" />
    <glyph glyph-name="gbreve" unicode="&#x11f;" horiz-adv-x="1096" 
d="M457 78q137 0 229 116.5t92 292.5q0 151 -75.5 242.5t-198.5 91.5q-140 0 -233 -114t-93 -291q0 -154 76 -246t203 -92zM950 887l-112 -856q-34 -253 -140 -365t-305 -112q-160 0 -263.5 93.5t-113.5 247.5l123 1v-5q0 -103 72.5 -167t189.5 -64q144 0 216 85t102 300
l14 102q-56 -85 -132 -127.5t-175 -42.5q-163 0 -268 124t-105 319q0 215 126 357.5t317 142.5q115 0 190.5 -51t120.5 -158l24 176h119zM367 1339h80v-18q0 -65 38 -99t111 -34q90 0 148 37t92 114h84q-41 -134 -123 -201t-207 -67q-111 0 -168 57.5t-57 167.5
q0 17 0.5 26.5t1.5 16.5z" />
    <glyph glyph-name="Idotaccent" unicode="&#x130;" horiz-adv-x="494" 
d="M86 0l195 1464h125l-193 -1464h-127zM274 1768q0 35 28.5 63.5t63.5 28.5q37 0 65 -28t28 -64q0 -40 -26.5 -67t-66.5 -27q-37 0 -64.5 28t-27.5 66z" />
    <glyph glyph-name="dotlessi" unicode="&#x131;" horiz-adv-x="461" 
d="M76 0l117 887h120l-116 -887h-121z" />
    <glyph glyph-name="Lslash" unicode="&#x141;" horiz-adv-x="854" 
d="M92 0l90 670l-198 -113l-47 86l260 152l88 669h125l-82 -608l295 170l53 -86l-365 -211l-80 -614h566l-17 -115h-688z" />
    <glyph glyph-name="lslash" unicode="&#x142;" horiz-adv-x="479" 
d="M86 0l86 666l-168 -97l-43 84l227 131l101 766h121l-95 -708l168 96l43 -84l-225 -131l-96 -723h-119z" />
    <glyph glyph-name="OE" unicode="&#x152;" horiz-adv-x="2347" 
d="M1499 791q0 272 -161 438t-427 166q-133 0 -253.5 -51t-208.5 -144q-100 -103 -153.5 -239.5t-53.5 -286.5q0 -272 160 -437t423 -165q135 0 255 50.5t212 145.5q100 103 153.5 238.5t53.5 284.5zM1393 0l34 244q-109 -140 -265.5 -212.5t-350.5 -72.5q-315 0 -506.5 196
t-191.5 519q0 180 61.5 339t175.5 271q111 109 254.5 165t310.5 56q230 0 385 -91t242 -277l45 327h719l-14 -112h-596l-64 -480h580l-14 -110h-580l-84 -647h610l-16 -115h-735z" />
    <glyph glyph-name="oe" unicode="&#x153;" horiz-adv-x="1837" 
d="M979 526h620q0 140 -69.5 215.5t-200.5 75.5q-132 0 -223 -75.5t-127 -215.5zM537 811q-157 0 -260 -112.5t-103 -284.5q0 -154 89.5 -250t232.5 -96q154 0 257 114t103 287q0 151 -89 246.5t-230 95.5zM895 174q-70 -104 -173 -158.5t-228 -54.5q-204 0 -325.5 122.5
t-121.5 326.5q0 217 142 363.5t354 146.5q130 0 228.5 -56.5t154.5 -163.5q67 107 170 163.5t231 56.5q183 0 286 -106t103 -294q0 -19 -1.5 -43t-4.5 -51h-743v-23q0 -160 81 -247.5t230 -87.5q91 0 163.5 41t129.5 124l82 -79q-76 -100 -167 -146.5t-212 -46.5
q-136 0 -231.5 54t-147.5 159z" />
    <glyph glyph-name="Scedilla" unicode="&#x15e;" horiz-adv-x="1020" 
d="M90 348q64 -137 149.5 -202.5t200.5 -65.5q138 0 219.5 84t81.5 225q0 100 -47 164.5t-198 144.5q-200 107 -262 193.5t-62 220.5q0 168 115.5 276.5t296.5 108.5q117 0 205.5 -52t160.5 -165l-84 -74q-54 90 -125 135t-159 45q-127 0 -209 -78t-82 -198q0 -91 46 -152
t214 -151q196 -106 257.5 -193.5t61.5 -222.5q0 -190 -120 -309t-312 -119q-150 0 -257.5 74.5t-176.5 226.5zM162 -416l26 78q67 -19 120 -29t91 -10q68 0 105 29t37 82q0 47 -39.5 67.5t-130.5 20.5h-31l59 178h66l-37 -111h20q101 0 153 -39.5t52 -115.5
q0 -92 -62.5 -143.5t-174.5 -51.5q-55 0 -116.5 11t-137.5 34z" />
    <glyph glyph-name="scedilla" unicode="&#x15f;" horiz-adv-x="807" 
d="M70 211q59 -77 127 -113.5t151 -36.5q87 0 144 46.5t57 115.5q0 57 -31.5 92t-148.5 82q-156 63 -207 117.5t-51 138.5q0 121 82 195t217 74q75 0 147.5 -33t140.5 -98l-71 -80q-53 56 -110.5 85t-119.5 29q-77 0 -125.5 -45t-48.5 -116q0 -86 166 -152q36 -14 55 -23
q121 -52 172.5 -110.5t51.5 -140.5q0 -126 -88.5 -201.5t-237.5 -75.5q-113 0 -198 42.5t-152 131.5zM51 -416l26 78q67 -19 120 -29t91 -10q68 0 105 29t37 82q0 47 -39.5 67.5t-130.5 20.5h-31l59 178h66l-37 -111h20q101 0 153 -39.5t52 -115.5q0 -92 -62.5 -143.5
t-174.5 -51.5q-55 0 -116.5 11t-137.5 34z" />
    <glyph glyph-name="Scaron" unicode="&#x160;" horiz-adv-x="1020" 
d="M90 348q64 -137 149.5 -202.5t200.5 -65.5q138 0 219.5 84t81.5 225q0 100 -47 164.5t-198 144.5q-200 107 -262 193.5t-62 220.5q0 168 115.5 276.5t296.5 108.5q117 0 205.5 -52t160.5 -165l-84 -74q-54 90 -125 135t-159 45q-127 0 -209 -78t-82 -198q0 -91 46 -152
t214 -151q196 -106 257.5 -193.5t61.5 -222.5q0 -190 -120 -309t-312 -119q-150 0 -257.5 74.5t-176.5 226.5zM377 1958h79l146 -247l235 247h92l-268 -350h-131z" />
    <glyph glyph-name="scaron" unicode="&#x161;" horiz-adv-x="807" 
d="M70 211q59 -77 127 -113.5t151 -36.5q87 0 144 46.5t57 115.5q0 57 -31.5 92t-148.5 82q-156 63 -207 117.5t-51 138.5q0 121 82 195t217 74q75 0 147.5 -33t140.5 -98l-71 -80q-53 56 -110.5 85t-119.5 29q-77 0 -125.5 -45t-48.5 -116q0 -86 166 -152q36 -14 55 -23
q121 -52 172.5 -110.5t51.5 -140.5q0 -126 -88.5 -201.5t-237.5 -75.5q-113 0 -198 42.5t-152 131.5zM213 1380h79l146 -247l235 247h92l-268 -350h-131z" />
    <glyph glyph-name="Ydieresis" unicode="&#x178;" horiz-adv-x="1014" 
d="M346 0l90 684l-395 780h137l330 -661l455 661h141l-541 -786l-90 -678h-127zM379 1768q0 32 27 59t61 27q35 0 60.5 -25.5t25.5 -60.5q0 -38 -24.5 -63t-61.5 -25q-36 0 -62 26t-26 62zM700 1768q0 32 27.5 59t60.5 27q36 0 61 -25.5t25 -60.5q0 -38 -24.5 -63t-61.5 -25
q-36 0 -62 26t-26 62z" />
    <glyph glyph-name="Zcaron" unicode="&#x17d;" horiz-adv-x="1139" 
d="M-43 0l969 1348h-729l16 116h940l-969 -1347h787l-15 -117h-999zM437 1958h79l146 -247l235 247h92l-268 -350h-131z" />
    <glyph glyph-name="zcaron" unicode="&#x17e;" horiz-adv-x="815" 
d="M-59 0l643 782h-518l14 105h725l-637 -781h545l-15 -106h-757zM218 1380h79l146 -247l235 247h92l-268 -350h-131z" />
    <glyph glyph-name="florin" unicode="&#x192;" horiz-adv-x="1147" 
d="M109 -346q20 -7 40 -10.5t37 -3.5q57 0 87 45t53 174l149 854h-180l16 94h181l77 440q21 120 73 175t144 55q31 0 61.5 -6.5t59.5 -18.5l-18 -104q-21 10 -43 15t-47 5q-51 0 -75.5 -32t-45.5 -154l-68 -375h199l-16 -94h-199l-150 -852q-36 -206 -89 -267t-160 -61
q-33 0 -58 4.5t-47 13.5z" />
    <glyph glyph-name="circumflex" unicode="&#x2c6;" 
d="M823 1030h-82l-145 248l-234 -248h-92l267 350h133z" />
    <glyph glyph-name="caron" unicode="&#x2c7;" 
d="M322 1380h79l146 -247l235 247h92l-268 -350h-131z" />
    <glyph glyph-name="breve" unicode="&#x2d8;" 
d="M330 1339h80v-18q0 -65 38 -99t111 -34q90 0 148 37t92 114h84q-41 -134 -123 -201t-207 -67q-111 0 -168 57.5t-57 167.5q0 17 0.5 26.5t1.5 16.5z" />
    <glyph glyph-name="dotaccent" unicode="&#x2d9;" 
d="M481 1190q0 35 28.5 63.5t63.5 28.5q37 0 65 -28t28 -64q0 -40 -26.5 -67t-66.5 -27q-37 0 -64.5 28t-27.5 66z" />
    <glyph glyph-name="ring" unicode="&#x2da;" 
d="M434 1251q0 -65 45 -110t111 -45q64 0 109.5 45.5t45.5 109.5q0 66 -45 111t-110 45q-66 0 -111 -45t-45 -111zM350 1253q0 102 69 171t171 69t171.5 -69.5t69.5 -170.5t-70 -171t-171 -70t-170.5 70t-69.5 171z" />
    <glyph glyph-name="ogonek" unicode="&#x2db;" 
d="M461 0q-72 -63 -109 -122.5t-37 -113.5q0 -46 25.5 -66t85.5 -20h80l-12 -104h-66q-107 0 -159 40t-52 122q0 60 46.5 127t137.5 137h60z" />
    <glyph glyph-name="tilde" unicode="&#x2dc;" 
d="M856 1290q-33 -96 -77 -138t-111 -42q-15 0 -32 2.5t-35 7.5l-95 29q-4 1 -10 3q-22 7 -35 7q-30 0 -53 -20t-37 -58h-80q38 103 81 145t107 42q16 0 29.5 -2t26.5 -6l91 -29q4 -1 11 -3q33 -9 47 -9q34 0 56 17t36 54h80z" />
    <glyph glyph-name="hungarumlaut" unicode="&#x2dd;" 
d="M815 1380h127l-250 -350h-74zM553 1380h129l-233 -350h-72z" />
    <glyph glyph-name="uni03A9" unicode="&#x3a9;" horiz-adv-x="1585" 
d="M1452 121v-121h-573v102q218 136 328 307.5t110 376.5q0 269 -146.5 438t-377.5 169t-378 -169t-147 -438q0 -205 110 -376.5t329 -307.5v-102h-572v121h354q-183 132 -271.5 295.5t-88.5 369.5q0 317 188.5 522t475.5 205q286 0 474.5 -205t188.5 -522
q0 -206 -88.5 -369.5t-271.5 -295.5h356z" />
    <glyph glyph-name="pi" unicode="&#x3c0;" horiz-adv-x="1155" 
d="M1102 958h-182l-119 -565q-14 -62 -21.5 -111t-7.5 -77q0 -59 24.5 -83t84.5 -24q27 0 49.5 2.5t42.5 7.5l-25 -108q-29 -9 -52 -12.5t-44 -3.5q-92 0 -145.5 54t-53.5 148q0 47 11.5 122.5t44.5 228.5l88 421h-381l-203 -958h-121l201 958h-39q-55 0 -85.5 -32
t-41.5 -101h-121q25 135 85 186.5t206 51.5h829z" />
    <glyph glyph-name="endash" unicode="&#x2013;" 
d="M-45 401l10 80h1024l-10 -80h-1024z" />
    <glyph glyph-name="emdash" unicode="&#x2014;" horiz-adv-x="2048" 
d="M-45 401l10 80h2048l-10 -80h-2048z" />
    <glyph glyph-name="quoteleft" unicode="&#x2018;" horiz-adv-x="573" 
d="M154 1020l323 477l80 -47l-268 -508z" />
    <glyph glyph-name="quoteright" unicode="&#x2019;" horiz-adv-x="573" 
d="M150 989l266 508l135 -78l-324 -477z" />
    <glyph glyph-name="quotesinglbase" unicode="&#x201a;" horiz-adv-x="573" 
d="M-59 -229l266 508l135 -80l-324 -478z" />
    <glyph glyph-name="quotedblleft" unicode="&#x201c;" horiz-adv-x="930" 
d="M893 1450l-266 -508l-138 78l326 477zM160 1020l323 477l80 -47l-268 -508z" />
    <glyph glyph-name="quotedblright" unicode="&#x201d;" horiz-adv-x="930" 
d="M485 989l269 508l135 -78l-324 -477zM156 989l266 508l137 -78l-326 -477z" />
    <glyph glyph-name="quotedblbase" unicode="&#x201e;" horiz-adv-x="930" 
d="M287 -229l268 508l135 -80l-323 -478zM-43 -229l266 508l137 -80l-325 -478z" />
    <glyph glyph-name="dagger" unicode="&#x2020;" horiz-adv-x="1042" 
d="M303 -446l160 1222h-414l14 117h416l76 571h125l-76 -571h416l-14 -117h-418l-160 -1222h-125z" />
    <glyph glyph-name="daggerdbl" unicode="&#x2021;" horiz-adv-x="1042" 
d="M307 -446l66 487h-412l14 113h412l94 723h-411l14 110h412l63 477h117l-62 -477h410l-14 -110h-412l-94 -723h411l-14 -113h-412l-65 -487h-117z" />
    <glyph glyph-name="bullet" unicode="&#x2022;" horiz-adv-x="1208" 
d="M307 762q0 123 87 209t210 86q122 0 208.5 -86.5t86.5 -208.5t-87.5 -209.5t-209.5 -87.5q-123 0 -209 87t-86 210z" />
    <glyph glyph-name="ellipsis" unicode="&#x2026;" horiz-adv-x="2048" 
d="M153 84q0 43 30 72.5t73 29.5t72.5 -29.5t29.5 -72.5t-29.5 -72.5t-72.5 -29.5t-73 29.5t-30 72.5zM835 84q0 43 30 72.5t73 29.5t72.5 -29.5t29.5 -72.5t-29.5 -72.5t-72.5 -29.5t-73 29.5t-30 72.5zM1519 84q0 43 30 72.5t73 29.5t72.5 -29.5t29.5 -72.5t-29.5 -72.5
t-72.5 -29.5t-73 29.5t-30 72.5z" />
    <glyph glyph-name="perthousand" unicode="&#x2030;" horiz-adv-x="2171" 
d="M406 1477q126 0 189.5 -77t63.5 -229q0 -197 -91.5 -328.5t-223.5 -131.5q-128 0 -193 76.5t-65 226.5q0 201 91.5 332t228.5 131zM188 1001q0 -104 37 -158.5t109 -54.5q96 0 158.5 113t62.5 293q0 108 -34 157.5t-109 49.5q-94 0 -159 -114t-65 -286zM274 -39l824 1518
h86l-824 -1518h-86zM1128 735q126 0 190 -77.5t64 -229.5q0 -197 -91.5 -328t-223.5 -131q-128 0 -193 76.5t-65 226.5q0 201 91.5 332t227.5 131zM913 260q0 -107 36 -160t108 -53q95 0 158 113.5t63 292.5q0 108 -34 157t-107 49q-95 0 -159.5 -113t-64.5 -286zM1772 -31
q-128 0 -193.5 76.5t-65.5 226.5q0 202 91.5 332.5t228.5 130.5q125 0 189.5 -78t64.5 -229q0 -196 -92 -327.5t-223 -131.5zM1616 260q0 -106 36.5 -159.5t108.5 -53.5q96 0 158.5 113.5t62.5 292.5q0 108 -33.5 157t-107.5 49q-95 0 -160 -113.5t-65 -285.5z" />
    <glyph glyph-name="guilsinglleft" unicode="&#x2039;" horiz-adv-x="569" 
d="M305 23l-260 419l365 418l69 -67l-311 -365l217 -350z" />
    <glyph glyph-name="guilsinglright" unicode="&#x203a;" horiz-adv-x="569" 
d="M188 860l261 -422l-365 -415l-70 65l312 365l-217 352z" />
    <glyph glyph-name="franc" unicode="&#x20a3;" horiz-adv-x="1640" 
d="M82 0l192 1464h721l-14 -112h-596l-63 -480h579l-14 -110h-580l-100 -762h-125zM1080 0l116 887h117l-23 -150q63 91 131 138t138 47q28 0 54.5 -5t49.5 -14l-28 -121q-40 14 -61.5 19.5t-35.5 5.5q-118 0 -187.5 -88t-92.5 -268l-58 -451h-120z" />
    <glyph glyph-name="trademark" unicode="&#x2122;" horiz-adv-x="1706" 
d="M926 1454l174 -440l162 440h102v-530h-59v479l-181 -479h-49l-190 479v-479h-60v530h101zM694 1454v-51h-174v-479h-67v479h-179v51h420z" />
    <glyph glyph-name="partialdiff" unicode="&#x2202;" 
d="M750 578q11 69 16.5 144.5t5.5 160.5q0 179 -38 266.5t-116 87.5q-45 0 -99.5 -73.5t-108.5 -73.5q-29 0 -48.5 18.5t-19.5 46.5q0 59 61 102t148 43q160 0 254 -147t94 -401q0 -335 -131.5 -557t-323.5 -222q-139 0 -224 105t-85 280q0 173 107 296.5t258 123.5
q97 0 158.5 -49t91.5 -151zM713 459q0 125 -47 190.5t-138 65.5q-117 0 -190.5 -125t-73.5 -330q0 -117 47.5 -179.5t137.5 -62.5q114 0 189 125.5t75 315.5z" />
    <glyph glyph-name="Delta" unicode="&#x2206;" horiz-adv-x="1335" 
d="M1155 121l-487 1233l-490 -1233h977zM754 1473l592 -1473h-1358l594 1473h172z" />
    <glyph glyph-name="product" unicode="&#x220f;" horiz-adv-x="1491" 
d="M164 1473h1163v-1866h-135v1743h-893v-1743h-135v1866z" />
    <glyph glyph-name="summation" unicode="&#x2211;" horiz-adv-x="1290" 
d="M45 1473h1208v-123h-1038l721 -787l-760 -835h1077v-121h-1243v127l752 829l-717 787v123z" />
    <glyph glyph-name="minus" unicode="&#x2212;" horiz-adv-x="1706" 
d="M1452 651v-82h-1198v82h1198z" />
    <glyph glyph-name="uni2215" unicode="&#x2215;" horiz-adv-x="342" 
d="M-248 -39h-94l930 1518h94z" />
    <glyph glyph-name="uni2219" unicode="&#x2219;" horiz-adv-x="573" 
d="M184 719q0 43 30 72.5t73 29.5t72.5 -29.5t29.5 -72.5t-29.5 -73t-72.5 -30t-73 30t-30 73z" />
    <glyph glyph-name="radical" unicode="&#x221a;" horiz-adv-x="1264" 
d="M1264 1626v-61h-129l-596 -1606h-31l-330 907l-110 -39l-15 50l230 79l278 -759l531 1429h172z" />
    <glyph glyph-name="infinity" unicode="&#x221e;" horiz-adv-x="1706" 
d="M889 557q54 -103 125 -154t162 -51q107 0 176 78t69 199q0 119 -63.5 196.5t-159.5 77.5q-87 0 -157.5 -77.5t-151.5 -268.5zM819 670q-52 102 -123.5 153t-163.5 51q-108 0 -176.5 -77.5t-68.5 -198.5q0 -118 63.5 -195t159.5 -77q88 0 158 76t151 268zM836 713
q66 139 146 206.5t177 67.5q130 0 219.5 -106t89.5 -265q0 -165 -80 -266.5t-210 -101.5q-94 0 -165.5 60.5t-142.5 201.5q-71 -139 -148.5 -203.5t-172.5 -64.5q-130 0 -220.5 106.5t-90.5 263.5q0 166 80 267.5t210 101.5q98 0 172.5 -64.5t135.5 -203.5z" />
    <glyph glyph-name="integral" unicode="&#x222b;" horiz-adv-x="948" 
d="M401 578q0 498 86.5 733t268.5 235q65 0 106 -35t41 -90q0 -45 -27.5 -71.5t-74.5 -26.5q-77 0 -101.5 64.5t-33.5 64.5q-67 0 -93 -159t-26 -687q0 -509 -85.5 -743t-268.5 -234q-64 0 -106 34.5t-42 84.5q0 48 28.5 77.5t76.5 29.5q33 0 56 -13.5t40 -42.5
q8 -14 12.5 -44.5t24.5 -30.5q66 0 92 165t26 689z" />
    <glyph glyph-name="approxequal" unicode="&#x2248;" horiz-adv-x="1706" 
d="M1530 485q-106 -74 -202 -110.5t-185 -36.5q-106 0 -295.5 70.5t-282.5 70.5q-83 0 -171 -35.5t-216 -124.5v93q105 73 201 109t186 36q106 0 295.5 -69.5t282.5 -69.5q83 0 171 35.5t216 124.5v-93zM1530 809q-105 -73 -200.5 -109t-186.5 -36q-106 0 -295.5 69.5
t-282.5 69.5q-83 0 -171 -35.5t-216 -124.5v92q106 75 202 111.5t185 36.5q106 0 295.5 -71t282.5 -71q81 0 168.5 36t218.5 126v-94z" />
    <glyph glyph-name="notequal" unicode="&#x2260;" horiz-adv-x="1706" 
d="M1280 1108l-217 -277h389v-79h-440l-219 -283h659v-82h-711l-254 -324l-61 48l215 276h-387v82h436l221 283h-657v79h709l254 326z" />
    <glyph glyph-name="lessequal" unicode="&#x2264;" horiz-adv-x="1706" 
d="M1442 129v-80h-1178v80h1178zM1442 1083l-1043 -350l1043 -352v-88l-1178 405v70l1178 403v-88z" />
    <glyph glyph-name="greaterequal" unicode="&#x2265;" horiz-adv-x="1706" 
d="M1442 129v-80h-1178v80h1178zM1442 768v-70l-1178 -405v88l1043 352l-1043 350v88z" />
    <glyph glyph-name="lozenge" unicode="&#x25ca;" horiz-adv-x="1012" 
d="M506 1409l-385 -817l385 -825l385 825zM506 1653l500 -1061l-500 -1069l-500 1069z" />
    <glyph glyph-name="apple" unicode="&#xf000;" horiz-adv-x="1618" 
d="M836 1216q-1 6 -1.5 14t-0.5 23q0 124 95 229.5t236 131.5q1 -10 1.5 -23t0.5 -39q0 -131 -103.5 -234.5t-203.5 -103.5h-8q-3 0 -7.5 1t-8.5 1zM1505 403q-114 -247 -205 -342.5t-204 -95.5q-50 0 -131.5 33t-122.5 33q-45 0 -131 -33t-127 -33q-64 0 -128.5 44
t-129.5 132q-102 140 -157.5 295.5t-55.5 300.5q0 219 125 356.5t323 137.5q68 0 155 -34t124 -34q34 0 121.5 35t152.5 35q110 0 198 -40t161 -124q-102 -65 -151.5 -145.5t-49.5 -182.5q0 -113 60 -200t173 -138z" />
    <glyph glyph-name="fi" unicode="&#xf001;" horiz-adv-x="991" 
d="M102 0l105 782h-162l14 105h160l53 399q23 164 74 224.5t158 60.5q40 0 75.5 -7.5t65.5 -21.5l-16 -106q-37 14 -62.5 20t-44.5 6q-60 0 -88.5 -39t-42.5 -147l-51 -389h211l-14 -105h-211l-103 -782h-121zM731 1214q0 39 26 65t64 26q39 0 64.5 -26t25.5 -65
q0 -38 -25.5 -64t-64.5 -26q-38 0 -64 26t-26 64zM606 0l117 887h121l-117 -887h-121z" />
    <glyph glyph-name="fl" unicode="&#xf002;" horiz-adv-x="991" 
d="M102 0l105 782h-162l14 105h160l53 399q23 164 74 224.5t158 60.5q40 0 75.5 -7.5t65.5 -21.5l-16 -106q-37 14 -62.5 20t-44.5 6q-60 0 -88.5 -39t-42.5 -147l-51 -389h211l-14 -105h-211l-103 -782h-121zM606 0l205 1550h119l-203 -1550h-121z" />
    </font>
</defs>
</svg>
