<?xml version="1.0" standalone="no"?>
<!DOCTYPE svg PUBLIC "-//W3C//DTD SVG 1.1//EN" "http://www.w3.org/Graphics/SVG/1.1/DTD/svg11.dtd" >
<svg xmlns="http://www.w3.org/2000/svg" xmlns:xlink="http://www.w3.org/1999/xlink" version="1.1">
<metadata>
Created by FontForge 20170731 at Tue Feb 25 22:50:13 2020
 By Aleksey,,,
Copyright 1990-1993 Bitstream Inc.  All rights reserved.
</metadata>
<defs>
<font id="FuturaWindows-SemiboldItalic" horiz-adv-x="1024" >
  <font-face 
    font-family="Futura Windows Semibold"
    font-weight="600"
    font-style="italic"
    font-stretch="normal"
    units-per-em="2048"
    panose-1="2 11 7 2 2 2 4 9 3 3"
    ascent="1638"
    descent="-410"
    x-height="948"
    cap-height="1464"
    bbox="-342 -487 2300 1972"
    underline-thickness="141"
    underline-position="-432"
    slope="-7.5"
    unicode-range="U+001D-F002"
  />
<missing-glyph horiz-adv-x="1229" 
d="M102 -362v1806h1024v-1806h-1024zM217 -248h795v1577h-795v-1577z" />
    <glyph glyph-name=".notdef" horiz-adv-x="1229" 
d="M102 -362v1806h1024v-1806h-1024zM217 -248h795v1577h-795v-1577z" />
    <glyph glyph-name="uni0000" horiz-adv-x="0" 
 />
    <glyph glyph-name="uni0000" horiz-adv-x="0" 
 />
    <glyph glyph-name="uni000D" horiz-adv-x="604" 
 />
    <glyph glyph-name="space" unicode=" " horiz-adv-x="604" 
 />
    <glyph glyph-name="exclam" unicode="!" horiz-adv-x="651" 
d="M166 338l156 1159h219l-154 -1159h-221zM111 96q0 55 38.5 93t94.5 38t94.5 -37.5t38.5 -93.5t-38.5 -95.5t-94.5 -39.5t-94.5 39.5t-38.5 95.5z" />
    <glyph glyph-name="quotedbl" unicode="&#x22;" horiz-adv-x="643" 
d="M395 1436h164v-557h-164v557zM86 1436h164v-557h-164v557z" />
    <glyph glyph-name="numbersign" unicode="#" horiz-adv-x="1575" 
d="M709 852l-91 -254h256l91 254h-256zM735 1460h191l-154 -436h250l156 436h190l-154 -436h291l-59 -172h-293l-90 -252h309l-61 -172h-307l-156 -434h-191l156 434h-252l-158 -434h-190l156 434h-299l61 172h297l90 252h-315l61 172h316z" />
    <glyph glyph-name="dollar" unicode="$" horiz-adv-x="1208" 
d="M68 252l161 129q58 -110 122 -163.5t143 -57.5l63 499q-172 89 -242.5 178t-70.5 212q0 178 117.5 297t304.5 127l22 169h107l-25 -172q105 -13 185.5 -65t140.5 -145l-138 -125q-45 68 -97 105.5t-113 45.5l-62 -450q168 -80 246 -182t78 -242q0 -191 -116.5 -307.5
t-322.5 -133.5l-28 -215h-107l31 213q-135 6 -235 77t-164 206zM655 602l-59 -434q86 20 135 81t49 148q0 68 -31.5 119.5t-93.5 85.5zM588 889l53 391q-75 -17 -121.5 -77t-46.5 -140q0 -54 28 -96.5t87 -77.5z" />
    <glyph glyph-name="percent" unicode="%" horiz-adv-x="1497" 
d="M412 1364q-78 0 -131.5 -99t-53.5 -247q0 -93 27 -138.5t82 -45.5q78 0 131 102t53 260q0 83 -27.5 125.5t-80.5 42.5zM410 1481q137 0 205.5 -81t68.5 -243q0 -191 -99 -316.5t-247 -125.5q-137 0 -207 80t-70 237q0 198 98 323.5t251 125.5zM1174 606
q-78 0 -131.5 -98.5t-53.5 -247.5q0 -93 27 -138.5t82 -45.5q78 0 131 102t53 258q0 85 -27.5 127.5t-80.5 42.5zM1171 725q137 0 206 -82.5t69 -245.5q0 -190 -98.5 -314t-247.5 -124q-138 0 -207.5 79t-69.5 236q0 199 98 325t250 126zM250 -41l850 1522h147l-852 -1522
h-145z" />
    <glyph glyph-name="ampersand" unicode="&#x26;" horiz-adv-x="1321" 
d="M604 956q133 93 175 142.5t42 99.5q0 63 -40.5 98t-112.5 35q-68 0 -108 -38.5t-40 -102.5q0 -46 20.5 -103t63.5 -131zM801 324q-63 87 -126 183.5t-132 213.5q-173 -100 -243.5 -180.5t-70.5 -173.5q0 -97 66 -159.5t168 -62.5q77 0 157.5 42.5t180.5 136.5zM1030 0
l-129 172q-113 -110 -223.5 -160.5t-237.5 -50.5q-187 0 -299 108t-112 287q0 152 93 267.5t324 242.5q-63 104 -90.5 178.5t-27.5 141.5q0 146 92 230.5t252 84.5q154 0 244 -76.5t90 -207.5q0 -114 -72 -205.5t-244 -192.5q54 -87 116 -177t134 -187l188 207l119 -140
l-207 -217l230 -305h-240z" />
    <glyph glyph-name="quotesingle" unicode="'" horiz-adv-x="334" 
d="M86 1436h164v-557h-164v557z" />
    <glyph glyph-name="parenleft" unicode="(" horiz-adv-x="668" 
d="M322 -487q-90 195 -134.5 396.5t-44.5 412.5q0 343 115 657t338 582l123 -95q-200 -248 -304 -540t-104 -602q0 -198 42.5 -388.5t123.5 -359.5z" />
    <glyph glyph-name="parenright" unicode=")" horiz-adv-x="668" 
d="M291 1561q89 -196 133.5 -397.5t44.5 -411.5q0 -344 -114.5 -658t-338.5 -581l-122 96q199 249 303 539.5t104 601.5q0 198 -42 388t-124 359z" />
    <glyph glyph-name="asterisk" unicode="*" horiz-adv-x="901" 
d="M158 1053l245 84l-217 145l80 107l191 -172l10 247l135 -16l-51 -242l225 121l53 -123l-247 -86l217 -145l-82 -105l-187 172l-10 -247l-135 14l51 244l-225 -121z" />
    <glyph glyph-name="plus" unicode="+" horiz-adv-x="1706" 
d="M768 1221h170v-527h514v-166h-514v-528h-170v528h-514v166h514v527z" />
    <glyph glyph-name="comma" unicode="," horiz-adv-x="604" 
d="M215 293l178 -105l-348 -481l-119 72z" />
    <glyph glyph-name="hyphen" unicode="-" horiz-adv-x="750" 
d="M72 375l24 192h512l-24 -192h-512z" />
    <glyph glyph-name="period" unicode="." horiz-adv-x="604" 
d="M96 111q0 55 38 94t93 39t93 -39t38 -94q0 -54 -38 -91.5t-93 -37.5t-93 37.5t-38 91.5z" />
    <glyph glyph-name="slash" unicode="/" horiz-adv-x="948" 
d="M0 -190l782 1687h166l-782 -1687h-166z" />
    <glyph glyph-name="zero" unicode="0" horiz-adv-x="1208" 
d="M666 1282q-161 0 -258 -200.5t-97 -538.5q0 -192 55.5 -287.5t165.5 -95.5q166 0 264.5 196t98.5 531q0 204 -55.5 299.5t-173.5 95.5zM1128 872q0 -192 -44 -362.5t-128 -300.5q-80 -124 -189 -186t-245 -62q-213 0 -327.5 157t-114.5 449q0 194 44 364t128 302
q80 124 187 185t245 61q215 0 329.5 -157t114.5 -450z" />
    <glyph glyph-name="one" unicode="1" horiz-adv-x="1208" 
d="M473 0l166 1255h-289l105 195h434l-193 -1450h-223z" />
    <glyph glyph-name="two" unicode="2" horiz-adv-x="1208" 
d="M-10 0l585 588q201 200 258.5 294.5t57.5 184.5q0 108 -65.5 166.5t-186.5 58.5q-109 0 -181.5 -75t-82.5 -201h-223q10 219 143.5 341t363.5 122q217 0 339 -106t122 -292q0 -145 -87 -286.5t-415 -458.5l-143 -139h547l-41 -197h-991z" />
    <glyph glyph-name="three" unicode="3" horiz-adv-x="1208" 
d="M307 387v-12q0 -96 65.5 -156.5t168.5 -60.5q128 0 206 75t78 197q0 110 -77.5 167.5t-227.5 57.5h-37l25 182q8 0 18.5 -0.5t30.5 -0.5q147 0 230 65t83 180q0 98 -59.5 151.5t-169.5 53.5q-98 0 -161 -52t-79 -147h-217q26 183 151 287.5t316 104.5q198 0 319.5 -100
t121.5 -261q0 -138 -79.5 -237t-219.5 -138q128 -41 192 -127.5t64 -218.5q0 -189 -143 -311.5t-371 -122.5q-213 0 -333.5 112t-123.5 312h229z" />
    <glyph glyph-name="four" unicode="4" horiz-adv-x="1208" 
d="M707 500l57 387q8 53 15 89t16 71q-40 -53 -68 -88t-43 -54l-352 -405h375zM635 0l41 313h-719v35l1016 1131h71l-129 -977h168l-24 -189h-168l-41 -313h-215z" />
    <glyph glyph-name="five" unicode="5" horiz-adv-x="1208" 
d="M174 332q58 -88 134 -131t171 -43q150 0 253.5 99t103.5 241q0 147 -85.5 229t-238.5 82q-73 0 -148.5 -28t-168.5 -91l-39 19l217 741h708l-24 -182h-518l-88 -285q33 4 63.5 6t54.5 2q219 0 353.5 -133t134.5 -346q0 -234 -161 -393.5t-398 -159.5q-160 0 -275 55.5
t-207 175.5z" />
    <glyph glyph-name="six" unicode="6" horiz-adv-x="1208" 
d="M999 1382l-448 -518q34 6 61 8t52 2q189 0 303 -114.5t114 -304.5q0 -212 -156.5 -354t-394.5 -142q-204 0 -327 119.5t-123 316.5q0 240 343 636l42 48l383 443zM594 713q-123 0 -206 -87.5t-83 -217.5q0 -116 68.5 -185t183.5 -69q130 0 214.5 84.5t84.5 214.5
q0 121 -69.5 190.5t-192.5 69.5z" />
    <glyph glyph-name="seven" unicode="7" horiz-adv-x="1208" 
d="M166 45l702 1217h-657l25 188h985l-873 -1509z" />
    <glyph glyph-name="eight" unicode="8" horiz-adv-x="1208" 
d="M311 389q0 -103 67 -167t175 -64q121 0 198.5 78.5t77.5 201.5q0 104 -67 165t-180 61q-118 0 -194.5 -77.5t-76.5 -197.5zM430 1061q0 -92 55.5 -144.5t151.5 -52.5q107 0 170 65.5t63 176.5q0 79 -57 131.5t-145 52.5q-108 0 -173 -62.5t-65 -166.5zM418 795
q-104 55 -153.5 129t-49.5 172q0 170 127.5 276.5t333.5 106.5q192 0 304 -96t112 -259q0 -127 -74.5 -217t-216.5 -135q119 -35 183.5 -121t64.5 -211q0 -215 -138.5 -346t-365.5 -131q-213 0 -334 112t-121 308q0 154 82.5 257.5t245.5 154.5z" />
    <glyph glyph-name="nine" unicode="9" horiz-adv-x="1208" 
d="M610 725q123 0 205 87.5t82 217.5q0 116 -68 185t-182 69q-129 0 -214 -84.5t-85 -214.5q0 -121 70 -190.5t192 -69.5zM205 55l448 518q-34 -5 -61 -7.5t-51 -2.5q-190 0 -304 114t-114 304q0 213 156 355.5t393 142.5q205 0 328.5 -119.5t123.5 -317.5q0 -239 -343 -635
l-42 -49l-383 -442z" />
    <glyph glyph-name="colon" unicode=":" horiz-adv-x="651" 
d="M100 111q0 54 39 93.5t92 39.5q55 0 93 -39t38 -94q0 -54 -38 -91.5t-93 -37.5t-93 37.5t-38 91.5zM190 795q0 53 38 91t91 38q56 0 95 -37.5t39 -91.5q0 -55 -39.5 -94t-94.5 -39q-54 0 -91.5 39t-37.5 94z" />
    <glyph glyph-name="semicolon" unicode=";" horiz-adv-x="651" 
d="M190 795q0 53 38.5 91t93.5 38t93 -37t38 -92t-38.5 -94t-92.5 -39q-55 0 -93.5 39t-38.5 94zM229 293l179 -105l-349 -481l-118 72z" />
    <glyph glyph-name="less" unicode="&#x3c;" horiz-adv-x="1706" 
d="M1442 1176v-185l-934 -381l934 -381v-182l-1178 483v160z" />
    <glyph glyph-name="equal" unicode="=" horiz-adv-x="1706" 
d="M254 487h1198v-165h-1198v165zM254 901h1198v-168h-1198v168z" />
    <glyph glyph-name="greater" unicode="&#x3e;" horiz-adv-x="1706" 
d="M264 1176l1178 -486v-160l-1178 -483v182l934 381l-934 381v185z" />
    <glyph glyph-name="question" unicode="?" horiz-adv-x="1063" 
d="M281 96q0 56 38 93.5t95 37.5q56 0 94.5 -37.5t38.5 -93.5t-38.5 -95.5t-94.5 -39.5t-94.5 39.5t-38.5 95.5zM848 639q-17 -152 -107 -234.5t-239 -82.5q-150 0 -242 80t-92 208q0 116 57 191.5t224 159.5l30 15q238 118 238 222q0 53 -44 90t-110 37q-71 0 -117.5 -44.5
t-54.5 -119.5h-198q10 156 113.5 247t268.5 91q163 0 259 -84.5t96 -226.5q0 -93 -59 -167.5t-187 -143.5q-35 -20 -98 -52q-217 -112 -217 -198q0 -55 35.5 -88t95.5 -33q61 0 98 34t46 99h204z" />
    <glyph glyph-name="at" unicode="@" horiz-adv-x="2048" 
d="M1174 283q-55 -87 -128 -127.5t-176 -40.5q-152 0 -232.5 86.5t-80.5 249.5q0 233 138 395t333 162q89 0 149 -34.5t99 -107.5l55 107h154l-148 -586q-1 -5 -2 -12q-6 -28 -6 -37q0 -38 26.5 -61t69.5 -23q51 0 107.5 30.5t105.5 84.5q72 76 110 177.5t38 215.5
q0 253 -187 411t-489 158q-138 0 -256 -31t-215 -94q-181 -113 -279 -291t-98 -395q0 -312 209.5 -499t558.5 -187q166 0 323.5 49t291.5 142l67 -99q-149 -113 -318.5 -170t-355.5 -57q-192 0 -351 48t-281 142q-155 118 -231.5 275.5t-76.5 357.5q0 165 52 313.5
t153 272.5q147 179 353.5 272t459.5 93q166 0 315 -45.5t255 -127.5q132 -102 198 -235.5t66 -300.5q0 -162 -65 -302t-185 -237q-69 -55 -150 -83.5t-168 -28.5q-106 0 -157 40.5t-51 125.5v4zM1233 707q-14 84 -61.5 130t-122.5 46q-127 0 -217.5 -128.5t-90.5 -310.5
q0 -98 45.5 -151t128.5 -53q90 0 163.5 66.5t99.5 172.5z" />
    <glyph glyph-name="A" unicode="A" horiz-adv-x="1276" 
d="M-113 0l848 1522l535 -1522h-238l-119 346h-583l-193 -346h-250zM422 541h428l-113 362q-8 26 -17 69t-22 113q-22 -52 -43.5 -98.5t-42.5 -87.5z" />
    <glyph glyph-name="B" unicode="B" horiz-adv-x="1176" 
d="M324 201h147q100 0 149.5 7t86.5 23q59 27 93 84t34 131q0 115 -71.5 162t-273.5 47h-106zM463 1266l-53 -412h84q208 0 287 51t79 172q0 104 -65 146.5t-252 42.5h-80zM70 0l192 1464h316q172 0 250.5 -19.5t134.5 -66.5q56 -48 85 -115.5t29 -148.5q0 -139 -71 -231.5
t-199 -118.5q124 -35 190 -117.5t66 -204.5q0 -114 -45.5 -206.5t-130.5 -151.5q-67 -46 -165.5 -65t-330.5 -19h-321z" />
    <glyph glyph-name="C" unicode="C" horiz-adv-x="1374" 
d="M1337 1368l-37 -250q-85 89 -184.5 132.5t-216.5 43.5q-120 0 -222.5 -41.5t-174.5 -119.5q-85 -91 -130.5 -209.5t-45.5 -245.5q0 -226 138.5 -368t358.5 -142q110 0 211.5 38t196.5 113l-51 -280q-100 -39 -192 -58.5t-177 -19.5q-320 0 -516.5 195.5t-196.5 513.5
q0 176 62.5 334.5t177.5 273.5q107 107 245 163t296 56q142 0 255.5 -32t202.5 -97z" />
    <glyph glyph-name="D" unicode="D" horiz-adv-x="1487" 
d="M326 209h84q247 0 350 23t178 77q101 73 157 195t56 268q0 126 -45 226.5t-129 164.5q-65 50 -147 71t-269 21h-98zM70 0l192 1464h311q243 0 360 -30.5t212 -102.5q118 -90 181 -231.5t63 -317.5q0 -155 -49.5 -296t-141.5 -246q-65 -75 -146.5 -126.5t-177.5 -78.5
q-64 -18 -136.5 -26.5t-180.5 -8.5h-141h-346z" />
    <glyph glyph-name="E" unicode="E" horiz-adv-x="1114" 
d="M70 0l192 1464h821l-26 -207h-594l-47 -368h592l-27 -205h-594l-61 -473h594l-29 -211h-821z" />
    <glyph glyph-name="F" unicode="F" horiz-adv-x="1096" 
d="M70 0l192 1464h821l-26 -207h-594l-47 -368h592l-27 -205h-594l-88 -684h-229z" />
    <glyph glyph-name="G" unicode="G" horiz-adv-x="1661" 
d="M1386 1049q-96 124 -214.5 184.5t-264.5 60.5q-116 0 -218.5 -42t-180.5 -122q-88 -91 -135 -206t-47 -240q0 -231 140 -372.5t370 -141.5q182 0 307 101.5t145 265.5h-379l25 208h625q0 -363 -198 -572.5t-538 -209.5q-328 0 -526.5 195t-198.5 518q0 180 62.5 335.5
t179.5 266.5q113 108 260.5 164.5t317.5 56.5q202 0 350.5 -70t279.5 -227z" />
    <glyph glyph-name="H" unicode="H" horiz-adv-x="1497" 
d="M70 0l192 1464h230l-74 -555h708l72 555h232l-195 -1464h-229l92 700h-707l-92 -700h-229z" />
    <glyph glyph-name="I" unicode="I" horiz-adv-x="569" 
d="M72 0l192 1464h234l-195 -1464h-231z" />
    <glyph glyph-name="J" unicode="J" horiz-adv-x="819" 
d="M100 287q25 -57 61 -87t81 -30q120 0 164 339q5 40 8 61l116 894h232l-115 -870l-4 -34q-48 -379 -119 -478q-42 -59 -113.5 -91t-162.5 -32q-115 0 -191.5 47t-128.5 150z" />
    <glyph glyph-name="K" unicode="K" horiz-adv-x="1233" 
d="M70 0l192 1464h230l-78 -602l583 602h285l-686 -692l594 -772h-281l-520 690l-90 -690h-229z" />
    <glyph glyph-name="L" unicode="L" horiz-adv-x="963" 
d="M70 0l192 1464h230l-162 -1239h547l-31 -225h-776z" />
    <glyph glyph-name="M" unicode="M" horiz-adv-x="1810" 
d="M1436 745v35q0 44 2 85t6 83q-13 -40 -35.5 -82t-65.5 -106l-528 -819l-303 817q-11 28 -24 70.5t-35 119.5q-4 -62 -42 -194l-1 -4l-220 -750h-233l481 1526l355 -948q27 -70 43.5 -120.5t29.5 -99.5q26 57 56.5 113t66.5 111l617 944l67 -1526h-227z" />
    <glyph glyph-name="N" unicode="N" horiz-adv-x="1624" 
d="M70 0l198 1522l799 -916q43 -50 78 -95t65 -89q0 46 4.5 97.5t14.5 129.5l110 815h215l-198 -1521l-801 915q-54 62 -86.5 104.5t-56.5 81.5q-2 -68 -20 -208l-3 -21l-104 -815h-215z" />
    <glyph glyph-name="O" unicode="O" horiz-adv-x="1743" 
d="M1415 780q0 231 -140.5 372.5t-371.5 141.5q-114 0 -217.5 -43t-179.5 -123q-88 -90 -134 -205t-46 -241q0 -229 138.5 -371.5t360.5 -142.5q251 0 420.5 175.5t169.5 436.5zM915 1499q334 0 532 -194.5t198 -520.5q0 -175 -64.5 -329.5t-183.5 -268.5
q-115 -108 -266 -165.5t-322 -57.5q-319 0 -515 196t-196 515q0 178 63 333.5t181 268.5q112 107 261 165t312 58z" />
    <glyph glyph-name="P" unicode="P" horiz-adv-x="1124" 
d="M408 834h77q216 0 294.5 51.5t78.5 177.5q0 106 -66 149t-255 43h-74zM299 0h-229l192 1464h303q175 0 252 -20t137 -68q66 -52 101 -129.5t35 -173.5q0 -113 -40.5 -202.5t-117.5 -149.5q-66 -52 -155 -74t-275 -22h-66h-55z" />
    <glyph glyph-name="Q" unicode="Q" horiz-adv-x="1743" 
d="M807 436h274l115 -135q106 88 163.5 213t57.5 268q0 229 -140.5 369.5t-371.5 140.5q-116 0 -217 -41.5t-180 -122.5q-88 -91 -135 -206t-47 -240q0 -226 138 -370t351 -144q44 0 91.5 7t99.5 22zM1307 -156l-160 185q-85 -33 -164 -49.5t-156 -16.5q-335 0 -532 192
t-197 519q0 178 63 333.5t181 268.5q114 109 261.5 166t316.5 57q329 0 527 -194t198 -517q0 -199 -80 -369t-228 -284l244 -291h-274z" />
    <glyph glyph-name="R" unicode="R" horiz-adv-x="1143" 
d="M297 0h-227l192 1464h264q175 0 252 -20t137 -68q67 -52 102.5 -130t35.5 -173q0 -181 -99 -295t-280 -143l405 -635h-258l-387 627h-53zM403 813h46q216 0 294 54t78 186q0 112 -65.5 157t-255.5 45h-37z" />
    <glyph glyph-name="S" unicode="S" horiz-adv-x="1065" 
d="M-18 252l161 133q60 -120 129 -173.5t162 -53.5q116 0 188 68t72 177q0 77 -38 130.5t-134 109.5q-20 12 -59 34q-164 91 -221 154q-41 45 -61.5 104t-20.5 128q0 193 124 314.5t324 121.5q135 0 236.5 -55t167.5 -164l-140 -129q-49 80 -109 119t-134 39
q-108 0 -175 -63t-67 -163q0 -120 193 -224q48 -25 73 -40q148 -86 209.5 -178.5t61.5 -226.5q0 -208 -134 -330.5t-364 -122.5q-156 0 -266.5 72t-177.5 219z" />
    <glyph glyph-name="T" unicode="T" horiz-adv-x="1042" 
d="M301 0l166 1253h-395l28 211h1000l-29 -211h-373l-166 -1253h-231z" />
    <glyph glyph-name="U" unicode="U" horiz-adv-x="1479" 
d="M477 1464l-112 -850q-7 -47 -10 -85.5t-3 -67.5q0 -140 80 -214.5t230 -74.5q110 0 190.5 37t136.5 113q73 98 105 354q4 29 6 43l98 745h229l-108 -823q-28 -210 -61.5 -304t-92.5 -165q-86 -105 -220 -159t-308 -54q-250 0 -381 124t-131 359q0 52 8.5 145t24.5 208
l88 669h231z" />
    <glyph glyph-name="V" unicode="V" horiz-adv-x="1204" 
d="M27 1464h229l233 -874q18 -67 27 -108.5t14 -73.5q23 56 44.5 102.5t41.5 83.5l469 870h246l-866 -1521z" />
    <glyph glyph-name="W" unicode="W" horiz-adv-x="1870" 
d="M31 1464h237l195 -870q9 -45 14.5 -78.5t7.5 -62.5q19 47 35.5 85t24.5 54l467 930l252 -942q4 -16 8.5 -44.5t11.5 -82.5q14 47 26.5 85t20.5 58l375 868h258l-723 -1521l-258 954q-2 7 -11 57q-8 46 -14 76q-16 -50 -30 -87.5t-23 -55.5l-489 -944z" />
    <glyph glyph-name="X" unicode="X" horiz-adv-x="1161" 
d="M-76 0l525 739l-355 725h236l219 -450q1 -3 5 -11q35 -73 46 -114q7 26 21 54t38 63l320 458h262l-526 -737l356 -727h-240l-221 457q-10 23 -20.5 54t-20.5 68q-12 -32 -26 -59t-33 -53l-328 -467h-258z" />
    <glyph glyph-name="Y" unicode="Y" horiz-adv-x="1204" 
d="M51 1464h248l244 -491q11 -20 38 -88q11 -27 17 -41q15 27 35 58.5t51 76.5l334 485h262l-586 -813l-86 -651h-231l88 659z" />
    <glyph glyph-name="Z" unicode="Z" horiz-adv-x="1176" 
d="M-59 0l864 1247h-647l28 217h1035l-863 -1247h717l-28 -217h-1106z" />
    <glyph glyph-name="bracketleft" unicode="[" horiz-adv-x="668" 
d="M94 -424l252 1921h373l-21 -160h-186l-211 -1599h186l-20 -162h-373z" />
    <glyph glyph-name="backslash" unicode="\" horiz-adv-x="948" 
d="M782 -190h-168l-448 1687h166z" />
    <glyph glyph-name="bracketright" unicode="]" horiz-adv-x="668" 
d="M524 1497l-254 -1921h-372l20 162h186l211 1599h-186l21 160h374z" />
    <glyph glyph-name="asciicircum" unicode="^" horiz-adv-x="2048" 
d="M915 1460h218l495 -561h-207l-397 397l-399 -397h-207z" />
    <glyph glyph-name="underscore" unicode="_" 
d="M0 -311h1024v-172h-1024v172z" />
    <glyph glyph-name="grave" unicode="`" 
d="M696 1092h-116l-304 350h213z" />
    <glyph glyph-name="a" unicode="a" horiz-adv-x="1176" 
d="M276 444q0 -136 63 -212t175 -76q129 0 204 103t75 284q0 123 -67 195.5t-181 72.5q-123 0 -196 -99t-73 -268zM938 0h-215l16 104q-56 -71 -129 -106t-168 -35q-186 0 -287.5 117.5t-101.5 333.5q0 255 124 411t325 156q95 0 176.5 -39.5t150.5 -120.5l19 127h215z" />
    <glyph glyph-name="b" unicode="b" horiz-adv-x="1176" 
d="M838 506q0 139 -60.5 212t-175.5 73q-130 0 -205 -104t-75 -286q0 -121 69 -195.5t182 -74.5q122 0 193.5 100.5t71.5 274.5zM256 1550h215l-90 -696q63 64 134.5 95.5t156.5 31.5q186 0 287.5 -117t101.5 -334q0 -257 -124.5 -413t-328.5 -156q-90 0 -167.5 38
t-155.5 122l-19 -121h-215z" />
    <glyph glyph-name="c" unicode="c" horiz-adv-x="958" 
d="M870 678q-64 56 -134.5 85.5t-143.5 29.5q-145 0 -236.5 -102t-91.5 -265q0 -128 68 -201t186 -73q72 0 148 25t153 75l-45 -229q-59 -31 -124 -46.5t-138 -15.5q-214 0 -342.5 126.5t-128.5 336.5q0 246 154.5 401.5t398.5 155.5q91 0 169.5 -24t151.5 -74z" />
    <glyph glyph-name="d" unicode="d" horiz-adv-x="1176" 
d="M276 442q0 -137 63 -213.5t175 -76.5q129 0 204 104.5t75 286.5q0 123 -67 195.5t-181 72.5q-124 0 -196.5 -99.5t-72.5 -269.5zM940 0h-211l12 96q-63 -68 -137 -101.5t-162 -33.5q-186 0 -287.5 117.5t-101.5 333.5q0 256 124 412.5t323 156.5q99 0 182 -41t149 -123
l97 733h215z" />
    <glyph glyph-name="e" unicode="e" horiz-adv-x="1102" 
d="M283 588h489q-3 96 -59.5 151.5t-151.5 55.5q-108 0 -183 -56t-95 -151zM760 291l155 -121q-83 -109 -180 -159t-223 -50q-211 0 -341 127.5t-130 335.5q0 244 149.5 400.5t380.5 156.5q193 0 307.5 -119.5t114.5 -320.5q0 -17 -1.5 -43.5t-4.5 -63.5h-723
q0 -129 65 -205.5t173 -76.5q75 0 142.5 36.5t115.5 102.5z" />
    <glyph glyph-name="f" unicode="f" horiz-adv-x="645" 
d="M94 0l101 764h-172l24 184h170l33 236q28 217 98.5 301t218.5 84q47 0 89 -8.5t83 -26.5l-24 -186q-38 16 -65 23t-50 7q-61 0 -91 -44.5t-48 -182.5l-27 -203h193l-25 -184h-192l-101 -764h-215z" />
    <glyph glyph-name="g" unicode="g" horiz-adv-x="1176" 
d="M276 459q0 -132 63.5 -206.5t174.5 -74.5q127 0 204 98.5t77 264.5q0 126 -68 201t-182 75q-122 0 -195.5 -97.5t-73.5 -260.5zM938 12q-31 -233 -150 -345.5t-335 -112.5q-193 0 -313 93.5t-140 260.5l197 26q12 -100 74 -147t182 -47q145 0 207.5 80.5t76.5 300.5
q-62 -65 -135 -97t-160 -32q-183 0 -286 116t-103 324q0 245 125 397t324 152q93 0 175.5 -38.5t156.5 -117.5l18 123h211z" />
    <glyph glyph-name="h" unicode="h" horiz-adv-x="1180" 
d="M735 0l72 547q2 15 3 31.5t1 48.5q0 93 -45 141.5t-131 48.5q-134 0 -210 -86t-99 -264l-60 -467h-215l205 1550h215l-94 -710q81 72 166 106.5t180 34.5q146 0 227.5 -77t81.5 -214q0 -50 -14 -169q-1 -12 -2 -19l-66 -502h-215z" />
    <glyph glyph-name="i" unicode="i" horiz-adv-x="526" 
d="M203 1280q0 53 37.5 90t91.5 37t90.5 -36.5t36.5 -90.5q0 -55 -36.5 -92t-90.5 -37q-56 0 -92.5 37t-36.5 92zM61 0l125 948h215l-125 -948h-215z" />
    <glyph glyph-name="j" unicode="j" horiz-adv-x="526" 
d="M203 1280q0 53 37.5 90t91.5 37t90.5 -36.5t36.5 -90.5q0 -55 -36.5 -92t-90.5 -37q-56 0 -92.5 37t-36.5 92zM217 -446h-215l184 1394h215z" />
    <glyph glyph-name="k" unicode="k" horiz-adv-x="1071" 
d="M51 0l205 1550h215l-133 -1005l481 403h279l-518 -436l403 -512h-260l-389 504l-68 -504h-215z" />
    <glyph glyph-name="l" unicode="l" horiz-adv-x="526" 
d="M276 0h-215l203 1550h215z" />
    <glyph glyph-name="m" unicode="m" horiz-adv-x="1741" 
d="M1292 0l72 547q3 18 4.5 36.5t1.5 37.5q0 95 -39.5 145.5t-113.5 50.5q-118 0 -182.5 -83.5t-88.5 -266.5l-59 -467h-217l69 546q3 29 3.5 42.5t0.5 25.5q0 103 -39 153t-120 50q-111 0 -173.5 -84t-86.5 -266l-60 -467h-213l125 948h213l-31 -114q75 74 155.5 110.5
t170.5 36.5q102 0 168 -43.5t100 -132.5q84 91 169 133.5t186 42.5q135 0 209.5 -78t74.5 -221q0 -30 -3 -70t-11 -108l-66 -504h-219z" />
    <glyph glyph-name="n" unicode="n" horiz-adv-x="1180" 
d="M735 0l72 545q2 15 3 31.5t1 48.5q0 93 -45 142.5t-131 49.5q-134 0 -210 -86.5t-99 -265.5l-60 -465h-215l125 948h207l-16 -114q82 75 169.5 111t186.5 36q146 0 227.5 -76.5t81.5 -214.5q0 -35 -4 -81.5t-12 -108.5l-66 -500h-215z" />
    <glyph glyph-name="o" unicode="o" horiz-adv-x="1169" 
d="M584 793q-143 0 -233.5 -103t-90.5 -264q0 -128 68 -201t186 -73q149 0 238.5 98t89.5 264q0 133 -67.5 206t-190.5 73zM582 983q221 0 353 -129.5t132 -345.5q0 -239 -155 -393t-398 -154q-217 0 -347 127t-130 338q0 246 152 401.5t393 155.5z" />
    <glyph glyph-name="p" unicode="p" horiz-adv-x="1176" 
d="M838 504q0 137 -61 212t-173 75q-132 0 -207 -102t-75 -281q0 -121 67.5 -194t181.5 -73q124 0 195.5 97t71.5 266zM176 948h205l-10 -100q65 67 139.5 100t161.5 33q187 0 288 -116t101 -330q0 -252 -124 -408t-323 -156q-96 0 -178 40t-153 122l-76 -582h-215z" />
    <glyph glyph-name="q" unicode="q" horiz-adv-x="1176" 
d="M276 444q0 -137 63 -214.5t173 -77.5q129 0 205 104.5t76 286.5q0 122 -67.5 195t-180.5 73q-123 0 -196 -99t-73 -268zM879 -446h-215l71 536q-63 -65 -136 -97t-157 -32q-186 0 -287.5 117.5t-101.5 333.5q0 256 124 412.5t325 156.5q95 0 176.5 -39t155.5 -121l18 127
h211z" />
    <glyph glyph-name="r" unicode="r" horiz-adv-x="735" 
d="M698 758q-22 16 -47.5 24.5t-54.5 8.5q-115 0 -181 -85t-89 -262l-60 -444h-215l125 948h207l-16 -123q56 79 122.5 117.5t143.5 38.5q35 0 69 -9t66 -28z" />
    <glyph glyph-name="s" unicode="s" horiz-adv-x="825" 
d="M94 279q53 -74 117 -113t133 -39q68 0 109 30.5t41 80.5q0 71 -152 155l-8 4q-145 82 -190.5 141.5t-45.5 143.5q0 134 99 217.5t258 83.5q97 0 179 -36t154 -109l-133 -138q-46 57 -103 87t-120 30q-51 0 -87 -31t-36 -73q0 -69 128 -132q47 -24 73 -38
q111 -61 153 -121.5t42 -149.5q0 -142 -99 -226.5t-266 -84.5q-110 0 -204.5 44.5t-166.5 129.5z" />
    <glyph glyph-name="t" unicode="t" horiz-adv-x="598" 
d="M76 0l100 764h-164l25 184h162l47 359h215l-45 -359h172l-25 -184h-172l-100 -764h-215z" />
    <glyph glyph-name="u" unicode="u" horiz-adv-x="1169" 
d="M168 948h215l-51 -397q-2 -13 -5 -37q-18 -130 -18 -172q0 -92 51 -141t146 -49q132 0 192.5 72t87.5 278l60 446h215l-64 -481q-25 -186 -56.5 -261.5t-88.5 -129.5q-62 -57 -152.5 -86t-207.5 -29q-199 0 -299.5 90t-100.5 268q0 47 18 189l1 2z" />
    <glyph glyph-name="v" unicode="v" horiz-adv-x="952" 
d="M346 -57l-362 1005h223l147 -454q12 -38 20.5 -81.5t12.5 -90.5q12 39 30 79t42 80l272 467h244z" />
    <glyph glyph-name="w" unicode="w" horiz-adv-x="1548" 
d="M-4 948h217l154 -484l4 -12q28 -89 30 -132q11 34 28.5 72.5t43.5 82.5l318 543l155 -559q9 -31 15 -64t10 -76q15 42 30.5 76t30.5 59l287 494h244l-643 -1007l-160 530q-9 28 -15.5 60.5t-11.5 72.5q-22 -46 -39 -80t-26 -48l-322 -535z" />
    <glyph glyph-name="x" unicode="x" horiz-adv-x="977" 
d="M-90 0l418 496l-273 452h242l131 -231q4 -7 11 -19q28 -46 36 -75q19 33 36 58.5t32 41.5l188 225h254l-389 -454l293 -494h-246l-157 296q-10 18 -17.5 36.5t-13.5 38.5q-19 -26 -41.5 -60t-26.5 -39l-223 -272h-254z" />
    <glyph glyph-name="y" unicode="y" horiz-adv-x="952" 
d="M133 -446h-225l383 600l-275 794h224l141 -456q8 -25 15.5 -70t15.5 -111q15 42 34.5 84t45.5 84l274 469h240z" />
    <glyph glyph-name="z" unicode="z" horiz-adv-x="967" 
d="M-45 0l512 668q19 24 43.5 48.5t56.5 51.5h-469l23 180h817l-518 -674q-20 -26 -42.5 -50t-47.5 -44h532l-22 -180h-885z" />
    <glyph glyph-name="braceleft" unicode="{" 
d="M874 1477v-179q-8 0 -24 1t-23 1q-109 0 -147.5 -41.5t-38.5 -173.5v-241q0 -155 -44 -220.5t-159 -93.5q114 -27 158.5 -92.5t44.5 -220.5v-240q0 -132 39.5 -174.5t148.5 -42.5q7 0 22 1t23 1v-176h-63q-102 0 -165.5 12t-106.5 37q-57 34 -80 96t-23 203v248
q0 144 -52.5 203t-178.5 59q-7 0 -21.5 -1t-21.5 -1v179q7 0 21.5 -1.5t21.5 -1.5q126 0 178.5 59t52.5 202v247q0 145 23 206.5t80 94.5q44 27 109 38.5t181 11.5h45z" />
    <glyph glyph-name="bar" unicode="|" 
d="M424 1565h178v-2048h-178v2048z" />
    <glyph glyph-name="braceright" unicode="}" 
d="M152 1477h45q115 0 179.5 -11.5t108.5 -38.5q57 -33 80 -95t23 -206v-247q0 -144 52 -202.5t179 -58.5q6 0 21 1.5t22 1.5v-179q-7 0 -21.5 1t-21.5 1q-126 0 -178.5 -59t-52.5 -203v-248q0 -143 -23 -204t-80 -95q-43 -26 -108 -37.5t-180 -11.5h-45v176q8 0 23 -1
t22 -1q109 0 147.5 42t38.5 175v240q0 153 45 219t160 94q-115 28 -160 93.5t-45 220.5v241q0 132 -38 173.5t-146 41.5q-7 0 -23 -1t-24 -1v179z" />
    <glyph glyph-name="asciitilde" unicode="~" horiz-adv-x="1706" 
d="M1530 784v-184q-103 -71 -197.5 -106t-183.5 -35q-44 0 -92.5 8.5t-98.5 26.5q-25 8 -76 26q-212 74 -319 74q-82 0 -174 -38t-211 -122v187q106 72 202 107.5t185 35.5q62 0 125.5 -12t168.5 -48q13 -4 42 -15q164 -58 250 -58q85 0 177 37t202 116z" />
    <glyph glyph-name="uni00A0" unicode="&#xa0;" horiz-adv-x="1208" 
 />
    <glyph glyph-name="exclamdown" unicode="&#xa1;" horiz-adv-x="651" 
d="M485 1122l-153 -1161h-221l155 1161h219zM541 1364q0 -55 -39 -93t-94 -38q-57 0 -95.5 37.5t-38.5 93.5t38.5 94.5t95.5 38.5q56 0 94.5 -38.5t38.5 -94.5z" />
    <glyph glyph-name="cent" unicode="&#xa2;" horiz-adv-x="1208" 
d="M961 711q-47 42 -100.5 69t-117.5 41l-96 -634q61 4 126 28t138 70l-45 -230q-50 -27 -111 -41t-136 -16l-33 -229h-111l35 233q-176 28 -276.5 147t-100.5 300q0 246 142.5 398t388.5 169l28 178h109l-29 -186q75 -13 133 -36t103 -57zM543 193l98 632
q-129 -17 -207 -116.5t-78 -247.5q0 -110 47.5 -178.5t139.5 -89.5z" />
    <glyph glyph-name="sterling" unicode="&#xa3;" horiz-adv-x="1208" 
d="M-4 88q72 80 139 123.5t131 52.5q30 46 45 96.5t15 106.5q0 29 -2.5 62t-8.5 71h-237l18 135h180q-30 64 -45.5 132.5t-15.5 140.5q0 198 142 333.5t354 135.5q202 0 316 -113.5t114 -314.5q0 -21 -0.5 -30.5t-1.5 -18.5l-215 -1v19q0 131 -57.5 202.5t-164.5 71.5
q-115 0 -189.5 -81t-74.5 -210q0 -69 45 -223q8 -28 13 -43h352l-17 -135h-303v-25q0 -97 -24 -174.5t-74 -136.5q89 -11 207 -60.5t158 -49.5q49 0 93 24t93 78l104 -137q-76 -80 -154 -119t-161 -39q-38 0 -80.5 10.5t-107.5 36.5q-17 7 -50 20q-129 52 -196 52
q-58 0 -110.5 -24.5t-112.5 -80.5z" />
    <glyph glyph-name="currency" unicode="&#xa4;" horiz-adv-x="1241" 
d="M623 1176q-120 0 -205.5 -86t-85.5 -205q0 -120 84.5 -204.5t206.5 -84.5q121 0 205.5 84.5t84.5 204.5q0 119 -85.5 205t-204.5 86zM168 1430l203 -203q55 41 117 61.5t133 20.5t134 -20.5t117 -61.5l203 203l94 -93l-204 -204q39 -54 59 -116.5t20 -131.5
q0 -70 -20 -132.5t-59 -115.5l204 -205l-94 -92l-203 205q-57 -42 -118 -62t-131 -20q-72 0 -135 20.5t-117 61.5l-203 -205l-92 92l203 205q-40 53 -60 115.5t-20 132.5q0 69 20 131.5t60 116.5l-203 204z" />
    <glyph glyph-name="yen" unicode="&#xa5;" horiz-adv-x="1208" 
d="M410 0l75 578h-499l16 131h469l-88 170h-358l16 131h270l-227 442h235l242 -489q20 -41 35 -72.5t27 -60.5q15 29 35.5 62.5t48.5 72.5l340 487h251l-321 -442h264l-16 -131h-348l-125 -170h450l-18 -131h-482l-77 -578h-215z" />
    <glyph glyph-name="brokenbar" unicode="&#xa6;" 
d="M424 408h178v-758h-178v758zM424 1432h178v-758h-178v758z" />
    <glyph glyph-name="section" unicode="&#xa7;" horiz-adv-x="1139" 
d="M244 -94q7 -84 52.5 -126t129.5 -42q98 0 149.5 36.5t51.5 106.5q0 83 -243 230l-30 18q-173 105 -226.5 187.5t-53.5 205.5q0 159 89 266t253 144q-89 49 -129.5 109.5t-40.5 142.5q0 137 109 225t284 88q164 0 262 -99t98 -265h-192q0 4 1 12t1 12q0 76 -52.5 120
t-144.5 44q-75 0 -122.5 -38.5t-47.5 -98.5q0 -104 217 -205q12 -5 19 -8q170 -80 242.5 -175t72.5 -233q0 -166 -90.5 -274.5t-255.5 -138.5q97 -47 140.5 -110.5t43.5 -156.5q0 -151 -106.5 -238t-292.5 -87q-172 0 -274.5 90t-102.5 241v17h189zM274 524
q0 -102 70.5 -166.5t183.5 -64.5q112 0 189.5 77.5t77.5 192.5q0 105 -67 169.5t-175 64.5q-123 0 -201 -76t-78 -197z" />
    <glyph glyph-name="dieresis" unicode="&#xa8;" 
d="M629 1257q0 47 36 83t83 36q49 0 84.5 -35t35.5 -84q0 -53 -34 -86.5t-86 -33.5q-50 0 -84.5 35t-34.5 85zM291 1257q0 47 36.5 83t82.5 36q49 0 84.5 -35t35.5 -84q0 -53 -34 -86.5t-86 -33.5q-50 0 -84.5 35t-34.5 85z" />
    <glyph glyph-name="copyright" unicode="&#xa9;" horiz-adv-x="1706" 
d="M1206 903h-166q-10 74 -60 114t-130 40q-99 0 -155 -86.5t-56 -239.5q0 -152 57.5 -234.5t163.5 -82.5q80 0 129 43.5t60 124.5h165q-7 -135 -106.5 -217t-253.5 -82q-183 0 -290 119t-107 323q0 208 109.5 331.5t291.5 123.5q147 0 243 -77t105 -200zM854 1362
q-130 0 -243 -46.5t-201 -135.5q-90 -92 -138.5 -208t-48.5 -241q0 -126 48 -240t139 -204q90 -91 204.5 -139t239.5 -48t240 48.5t209 140.5q89 88 135.5 200.5t46.5 241.5t-47 243.5t-135 203.5q-91 90 -205 137t-244 47zM852 1470q152 0 286 -55t240 -162
q105 -105 160 -238.5t55 -283.5q0 -153 -54.5 -286t-158.5 -234q-108 -107 -244.5 -164t-283.5 -57q-146 0 -280 56.5t-240 162.5q-107 106 -163 240.5t-56 281.5q0 145 57 280.5t164 243.5q105 107 235.5 161t282.5 54z" />
    <glyph glyph-name="ordfeminine" unicode="&#xaa;" horiz-adv-x="883" 
d="M207 1112q0 -96 47 -149.5t131 -53.5q97 0 153 72.5t56 200.5q0 85 -49.5 135.5t-134.5 50.5q-94 0 -148.5 -69t-54.5 -187zM705 801h-162l12 73q-43 -51 -98 -75.5t-125 -24.5q-140 0 -215.5 82.5t-75.5 233.5q0 179 92.5 288t243.5 109q71 0 132 -27.5t114 -83.5l14 88
h160z" />
    <glyph glyph-name="guillemotleft" unicode="&#xab;" horiz-adv-x="981" 
d="M432 477l365 420l118 -100l-290 -332l204 -336l-133 -84zM37 477l364 420l121 -100l-293 -332l207 -336l-133 -84z" />
    <glyph glyph-name="logicalnot" unicode="&#xac;" horiz-adv-x="1706" 
d="M254 862h1198v-502h-166v336h-1032v166z" />
    <glyph glyph-name="uni00AD" unicode="&#xad;" horiz-adv-x="750" 
d="M72 375l24 192h512l-24 -192h-512z" />
    <glyph glyph-name="registered" unicode="&#xae;" horiz-adv-x="1706" 
d="M729 1047v-261h117q100 0 146 30.5t46 96.5q0 69 -48 101.5t-152 32.5h-109zM551 1159h319q173 0 262 -57t89 -168q0 -91 -48 -150.5t-137 -78.5l185 -375h-199l-164 346h-129v-346h-178v829zM854 1362q-129 0 -240 -45.5t-200 -134.5q-92 -94 -141.5 -210t-49.5 -241
t47 -238.5t136 -203.5q90 -91 204 -140t234 -49q130 0 246.5 47t209.5 138q89 86 137 198.5t48 237.5q0 133 -45.5 247.5t-134.5 205.5q-93 92 -207.5 140t-243.5 48zM852 1470q153 0 288.5 -56t241.5 -165q103 -104 157 -236.5t54 -281.5q0 -153 -55.5 -287t-161.5 -237
q-108 -105 -243 -161t-281 -56q-147 0 -282.5 57.5t-241.5 165.5q-105 106 -160 239t-55 279q0 147 57.5 284t165.5 245q104 104 234.5 157t281.5 53z" />
    <glyph glyph-name="macron" unicode="&#xaf;" 
d="M295 1182l18 147h551l-18 -147h-551z" />
    <glyph glyph-name="degree" unicode="&#xb0;" horiz-adv-x="674" 
d="M338 1350q-77 0 -131.5 -54t-54.5 -131q0 -76 54.5 -131t131.5 -55t130.5 54.5t53.5 131.5t-53.5 131t-130.5 54zM338 1460q121 0 208 -87t87 -210q0 -121 -87 -208t-210 -87t-208 85.5t-85 209.5q0 125 86 211t209 86z" />
    <glyph glyph-name="plusminus" unicode="&#xb1;" horiz-adv-x="1706" 
d="M254 182h1198v-168h-1198v168zM768 1206h170v-334h514v-165h-514v-334h-170v334h-514v165h514v334z" />
    <glyph glyph-name="uni00B2" unicode="&#xb2;" horiz-adv-x="797" 
d="M-6 575l385 353q133 121 171 177t38 112q0 64 -43.5 99.5t-122.5 35.5q-72 0 -120 -45.5t-54 -120.5h-148q6 130 95 203t241 73q142 0 222.5 -63t80.5 -174q0 -89 -58 -175t-273 -274l-95 -82h361l-27 -119h-653z" />
    <glyph glyph-name="uni00B3" unicode="&#xb3;" horiz-adv-x="797" 
d="M202 807v-6q0 -58 43 -94.5t110 -36.5q85 0 137 45t52 119q0 66 -51.5 100.5t-149.5 34.5h-25l17 108h33q96 0 151 39.5t55 108.5q0 58 -39.5 90.5t-111.5 32.5q-65 0 -107 -31.5t-53 -87.5h-143q18 109 100.5 171t208.5 62q130 0 210.5 -59.5t80.5 -155.5
q0 -83 -52.5 -142.5t-146.5 -82.5q85 -25 127.5 -77t42.5 -132q0 -113 -94.5 -186.5t-245.5 -73.5q-140 0 -219.5 67t-80.5 187h151z" />
    <glyph glyph-name="acute" unicode="&#xb4;" 
d="M535 1092h-132l222 350h213z" />
    <glyph glyph-name="mu" unicode="&#xb5;" horiz-adv-x="1208" 
d="M205 1081h229l-125 -635q-6 -29 -9 -55t-3 -49q0 -96 46.5 -146.5t135.5 -50.5q122 0 193.5 88.5t111.5 292.5l109 555h225l-145 -739q-10 -49 -14.5 -81.5t-4.5 -51.5q0 -36 15.5 -51t52.5 -15q13 0 20.5 0.5t13.5 1.5l-32 -159q-32 -9 -68.5 -13t-81.5 -4
q-74 0 -111.5 31.5t-37.5 93.5v15q-41 -67 -108 -104.5t-146 -37.5q-81 0 -137.5 26t-97.5 83l-99 -506h-229z" />
    <glyph glyph-name="paragraph" unicode="&#xb6;" 
d="M969 1479v-99h-117v-1380h-129v1380h-168v-1380h-131v784q-168 6 -268.5 101t-100.5 245q0 158 107 253.5t284 95.5h523z" />
    <glyph glyph-name="periodcentered" unicode="&#xb7;" horiz-adv-x="604" 
d="M170 721q0 55 38 93t93 38t93 -38t38 -93q0 -54 -38 -92.5t-93 -38.5t-93 38.5t-38 92.5z" />
    <glyph glyph-name="cedilla" unicode="&#xb8;" 
d="M102 -426l43 111q68 -24 124 -35.5t100 -11.5q55 0 86.5 24t31.5 66q0 41 -35.5 58t-125.5 17h-39l69 197h90l-34 -94h8q111 0 169 -43.5t58 -126.5q0 -102 -66 -158.5t-184 -56.5q-56 0 -126 12.5t-169 40.5z" />
    <glyph glyph-name="uni00B9" unicode="&#xb9;" horiz-adv-x="799" 
d="M313 575l109 754h-191l70 117h287l-127 -871h-148z" />
    <glyph glyph-name="ordmasculine" unicode="&#xba;" horiz-adv-x="877" 
d="M438 1356q-107 0 -175 -72t-68 -184q0 -90 51 -141.5t139 -51.5q112 0 179 69t67 185q0 94 -50 144.5t-143 50.5zM436 1489q167 0 266 -90.5t99 -241.5q0 -168 -116 -275.5t-300 -107.5q-162 0 -259 89t-97 237q0 172 113.5 280.5t293.5 108.5z" />
    <glyph glyph-name="guillemotright" unicode="&#xbb;" horiz-adv-x="981" 
d="M485 467l-364 -422l-121 102l293 332l-207 336l133 82zM879 467l-365 -422l-121 102l293 332l-207 336l133 82z" />
    <glyph glyph-name="onequarter" unicode="&#xbc;" horiz-adv-x="1866" 
d="M1548 281l37 215q1 3 2 9q8 49 16 80q-34 -41 -47.5 -55.5t-21.5 -21.5l-221 -227h235zM1503 0l27 176h-453v19l639 632h45l-80 -546h105l-14 -105h-107l-27 -176h-135zM420 -39l866 1518h158l-871 -1518h-153zM299 633l104 702h-182l66 109h272l-121 -811h-139z" />
    <glyph glyph-name="onehalf" unicode="&#xbd;" horiz-adv-x="1866" 
d="M1098 0l368 330q124 109 161.5 163t37.5 105q0 60 -41 92.5t-117 32.5q-69 0 -114.5 -41.5t-53.5 -112.5h-139q6 123 90 190.5t230 67.5q136 0 213 -58.5t77 -162.5q0 -81 -54 -160t-263 -258l-90 -77h344l-25 -111h-624zM420 -39l866 1518h158l-871 -1518h-153zM299 633
l104 702h-182l66 109h272l-121 -811h-139z" />
    <glyph glyph-name="threequarters" unicode="&#xbe;" horiz-adv-x="1864" 
d="M1547 281l37 215q1 3 2 9q8 49 16 80q-34 -41 -47.5 -55.5t-21.5 -21.5l-221 -227h235zM1502 0l27 176h-453v19l639 632h45l-80 -546h105l-14 -105h-107l-27 -176h-135zM419 -39l866 1518h158l-871 -1518h-153zM194 850v-8q0 -53 40.5 -87t104.5 -34q81 0 130.5 42
t49.5 111q0 62 -49 93.5t-143 31.5h-23l15 103q4 -1 11 -1.5t19 -0.5q93 0 146 37t53 102q0 55 -38 85t-108 30q-61 0 -100.5 -29.5t-50.5 -83.5h-135q15 102 93.5 160.5t199.5 58.5q125 0 201.5 -55.5t76.5 -144.5q0 -78 -50 -134t-138 -77q81 -24 121.5 -72t40.5 -121
q0 -106 -91 -175t-235 -69q-134 0 -209.5 63t-76.5 175h145z" />
    <glyph glyph-name="questiondown" unicode="&#xbf;" horiz-adv-x="1063" 
d="M770 1364q0 -56 -38.5 -93.5t-94.5 -37.5t-94.5 37.5t-38.5 93.5t38.5 94.5t94.5 38.5t94.5 -38.5t38.5 -94.5zM205 821q17 153 106 235.5t238 82.5t241.5 -80.5t92.5 -208.5q0 -116 -56.5 -192t-222.5 -158q-11 -6 -34 -17q-236 -118 -236 -221q0 -53 43.5 -90
t109.5 -37q71 0 117.5 44t55.5 120h198q-11 -155 -114 -246.5t-269 -91.5q-162 0 -258 84.5t-96 226.5q0 92 58.5 165.5t189.5 144.5q32 17 89 47q224 117 224 205q0 55 -34.5 87.5t-94.5 32.5q-62 0 -99 -34.5t-45 -98.5h-204z" />
    <glyph glyph-name="Agrave" unicode="&#xc0;" horiz-adv-x="1276" 
d="M-113 0l848 1522l535 -1522h-238l-119 346h-583l-193 -346h-250zM422 541h428l-113 362q-8 26 -17 69t-22 113q-22 -52 -43.5 -98.5t-42.5 -87.5zM878 1608h-116l-304 350h213z" />
    <glyph glyph-name="Aacute" unicode="&#xc1;" horiz-adv-x="1276" 
d="M-113 0l848 1522l535 -1522h-238l-119 346h-583l-193 -346h-250zM422 541h428l-113 362q-8 26 -17 69t-22 113q-22 -52 -43.5 -98.5t-42.5 -87.5zM717 1608h-132l222 350h213z" />
    <glyph glyph-name="Acircumflex" unicode="&#xc2;" horiz-adv-x="1276" 
d="M-113 0l848 1522l535 -1522h-238l-119 346h-583l-193 -346h-250zM422 541h428l-113 362q-8 26 -17 69t-22 113q-22 -52 -43.5 -98.5t-42.5 -87.5zM1018 1608h-117l-131 200l-217 -200h-129l254 350h213z" />
    <glyph glyph-name="Atilde" unicode="&#xc3;" horiz-adv-x="1276" 
d="M-113 0l848 1522l535 -1522h-238l-119 346h-583l-193 -346h-250zM422 541h428l-113 362q-8 26 -17 69t-22 113q-22 -52 -43.5 -98.5t-42.5 -87.5zM1065 1905q-30 -112 -81.5 -165t-129.5 -53q-20 0 -40 3.5t-40 9.5l-59 18q-22 6 -34.5 8t-23.5 2q-32 0 -55 -20t-35 -59
h-109q30 110 82.5 163.5t130.5 53.5q19 0 40.5 -3.5t43.5 -9.5l58 -16q7 -2 19 -5q26 -7 34 -7q33 0 55.5 20t34.5 60h109z" />
    <glyph glyph-name="Adieresis" unicode="&#xc4;" horiz-adv-x="1276" 
d="M-113 0l848 1522l535 -1522h-238l-119 346h-583l-193 -346h-250zM422 541h428l-113 362q-8 26 -17 69t-22 113q-22 -52 -43.5 -98.5t-42.5 -87.5zM811 1773q0 47 36 83t83 36q49 0 84.5 -35t35.5 -84q0 -53 -34 -86.5t-86 -33.5q-50 0 -84.5 35t-34.5 85zM473 1773
q0 47 36.5 83t82.5 36q49 0 84.5 -35t35.5 -84q0 -53 -34 -86.5t-86 -33.5q-50 0 -84.5 35t-34.5 85z" />
    <glyph glyph-name="Aring" unicode="&#xc5;" horiz-adv-x="1276" 
d="M623 1739q0 -47 35 -82t81 -35q48 0 81.5 34t33.5 83t-33 81.5t-82 32.5q-48 0 -82 -33.5t-34 -80.5zM504 1739q0 98 68.5 165.5t166.5 67.5q97 0 165.5 -68t68.5 -165q0 -99 -68 -167.5t-166 -68.5t-166.5 68.5t-68.5 167.5zM-113 0l820 1462h47l516 -1462h-238
l-119 346h-583l-193 -346h-250zM422 541h428l-113 362q-8 26 -17 69t-22 113q-22 -52 -43.5 -98.5t-42.5 -87.5z" />
    <glyph glyph-name="AE" unicode="&#xc6;" horiz-adv-x="1774" 
d="M-109 0l814 1464h747l45 -207h-536l81 -368h537l47 -205h-539l105 -473h539l45 -211h-762l-76 346h-596l-186 -346h-265zM895 541l-107 473q-8 42 -16.5 87t-17.5 95q-23 -53 -43.5 -101t-38.5 -87l-234 -467h457z" />
    <glyph glyph-name="Ccedilla" unicode="&#xc7;" horiz-adv-x="1374" 
d="M1337 1368l-37 -250q-85 89 -184.5 132.5t-216.5 43.5q-120 0 -222.5 -41.5t-174.5 -119.5q-85 -91 -130.5 -209.5t-45.5 -245.5q0 -226 138.5 -368t358.5 -142q110 0 211.5 38t196.5 113l-51 -280q-100 -39 -192 -58.5t-177 -19.5q-320 0 -516.5 195.5t-196.5 513.5
q0 176 62.5 334.5t177.5 273.5q107 107 245 163t296 56q142 0 255.5 -32t202.5 -97zM450 -426l43 111q68 -24 124 -35.5t100 -11.5q55 0 86.5 24t31.5 66q0 41 -35.5 58t-125.5 17h-39l69 197h90l-34 -94h8q111 0 169 -43.5t58 -126.5q0 -102 -66 -158.5t-184 -56.5
q-56 0 -126 12.5t-169 40.5z" />
    <glyph glyph-name="Egrave" unicode="&#xc8;" horiz-adv-x="1114" 
d="M70 0l192 1464h821l-26 -207h-594l-47 -368h592l-27 -205h-594l-61 -473h594l-29 -211h-821zM839 1608h-116l-304 350h213z" />
    <glyph glyph-name="Eacute" unicode="&#xc9;" horiz-adv-x="1114" 
d="M70 0l192 1464h821l-26 -207h-594l-47 -368h592l-27 -205h-594l-61 -473h594l-29 -211h-821zM678 1608h-132l222 350h213z" />
    <glyph glyph-name="Ecircumflex" unicode="&#xca;" horiz-adv-x="1114" 
d="M70 0l192 1464h821l-26 -207h-594l-47 -368h592l-27 -205h-594l-61 -473h594l-29 -211h-821zM979 1608h-117l-131 200l-217 -200h-129l254 350h213z" />
    <glyph glyph-name="Edieresis" unicode="&#xcb;" horiz-adv-x="1114" 
d="M70 0l192 1464h821l-26 -207h-594l-47 -368h592l-27 -205h-594l-61 -473h594l-29 -211h-821zM772 1773q0 47 36 83t83 36q49 0 84.5 -35t35.5 -84q0 -53 -34 -86.5t-86 -33.5q-50 0 -84.5 35t-34.5 85zM434 1773q0 47 36.5 83t82.5 36q49 0 84.5 -35t35.5 -84
q0 -53 -34 -86.5t-86 -33.5q-50 0 -84.5 35t-34.5 85z" />
    <glyph glyph-name="Igrave" unicode="&#xcc;" horiz-adv-x="569" 
d="M72 0l192 1464h234l-195 -1464h-231zM542 1608h-116l-304 350h213z" />
    <glyph glyph-name="Iacute" unicode="&#xcd;" horiz-adv-x="569" 
d="M72 0l192 1464h234l-195 -1464h-231zM381 1608h-132l222 350h213z" />
    <glyph glyph-name="Icircumflex" unicode="&#xce;" horiz-adv-x="569" 
d="M72 0l192 1464h234l-195 -1464h-231zM682 1608h-117l-131 200l-217 -200h-129l254 350h213z" />
    <glyph glyph-name="Idieresis" unicode="&#xcf;" horiz-adv-x="569" 
d="M72 0l192 1464h234l-195 -1464h-231zM475 1773q0 47 36 83t83 36q49 0 84.5 -35t35.5 -84q0 -53 -34 -86.5t-86 -33.5q-50 0 -84.5 35t-34.5 85zM137 1773q0 47 36.5 83t82.5 36q49 0 84.5 -35t35.5 -84q0 -53 -34 -86.5t-86 -33.5q-50 0 -84.5 35t-34.5 85z" />
    <glyph glyph-name="Eth" unicode="&#xd0;" horiz-adv-x="1509" 
d="M348 209h84q249 0 352.5 23t178.5 77q100 73 156.5 195t56.5 268q0 126 -45 226.5t-130 164.5q-64 50 -146.5 71t-268.5 21h-101l-49 -366h398l-23 -170h-397zM92 0l94 719h-202l22 170h205l76 575h309q242 0 359.5 -30.5t211.5 -102.5q119 -90 182.5 -231.5t63.5 -317.5
q0 -155 -49.5 -296t-140.5 -246q-65 -74 -147 -126t-179 -79q-64 -18 -136.5 -26.5t-178.5 -8.5h-142h-348z" />
    <glyph glyph-name="Ntilde" unicode="&#xd1;" horiz-adv-x="1624" 
d="M70 0l198 1522l799 -916q43 -50 78 -95t65 -89q0 46 4.5 97.5t14.5 129.5l110 815h215l-198 -1521l-801 915q-54 62 -86.5 104.5t-56.5 81.5q-2 -68 -20 -208l-3 -21l-104 -815h-215zM1256 1905q-30 -112 -81.5 -165t-129.5 -53q-20 0 -40 3.5t-40 9.5l-59 18
q-22 6 -34.5 8t-23.5 2q-32 0 -55 -20t-35 -59h-109q30 110 82.5 163.5t130.5 53.5q19 0 40.5 -3.5t43.5 -9.5l58 -16q7 -2 19 -5q26 -7 34 -7q33 0 55.5 20t34.5 60h109z" />
    <glyph glyph-name="Ograve" unicode="&#xd2;" horiz-adv-x="1743" 
d="M1415 780q0 231 -140.5 372.5t-371.5 141.5q-114 0 -217.5 -43t-179.5 -123q-88 -90 -134 -205t-46 -241q0 -229 138.5 -371.5t360.5 -142.5q251 0 420.5 175.5t169.5 436.5zM915 1499q334 0 532 -194.5t198 -520.5q0 -175 -64.5 -329.5t-183.5 -268.5
q-115 -108 -266 -165.5t-322 -57.5q-319 0 -515 196t-196 515q0 178 63 333.5t181 268.5q112 107 261 165t312 58zM1099 1608h-116l-304 350h213z" />
    <glyph glyph-name="Oacute" unicode="&#xd3;" horiz-adv-x="1743" 
d="M1415 780q0 231 -140.5 372.5t-371.5 141.5q-114 0 -217.5 -43t-179.5 -123q-88 -90 -134 -205t-46 -241q0 -229 138.5 -371.5t360.5 -142.5q251 0 420.5 175.5t169.5 436.5zM915 1499q334 0 532 -194.5t198 -520.5q0 -175 -64.5 -329.5t-183.5 -268.5
q-115 -108 -266 -165.5t-322 -57.5q-319 0 -515 196t-196 515q0 178 63 333.5t181 268.5q112 107 261 165t312 58zM938 1608h-132l222 350h213z" />
    <glyph glyph-name="Ocircumflex" unicode="&#xd4;" horiz-adv-x="1743" 
d="M1415 780q0 231 -140.5 372.5t-371.5 141.5q-114 0 -217.5 -43t-179.5 -123q-88 -90 -134 -205t-46 -241q0 -229 138.5 -371.5t360.5 -142.5q251 0 420.5 175.5t169.5 436.5zM915 1499q334 0 532 -194.5t198 -520.5q0 -175 -64.5 -329.5t-183.5 -268.5
q-115 -108 -266 -165.5t-322 -57.5q-319 0 -515 196t-196 515q0 178 63 333.5t181 268.5q112 107 261 165t312 58zM1239 1608h-117l-131 200l-217 -200h-129l254 350h213z" />
    <glyph glyph-name="Otilde" unicode="&#xd5;" horiz-adv-x="1743" 
d="M1415 780q0 231 -140.5 372.5t-371.5 141.5q-114 0 -217.5 -43t-179.5 -123q-88 -90 -134 -205t-46 -241q0 -229 138.5 -371.5t360.5 -142.5q251 0 420.5 175.5t169.5 436.5zM915 1499q334 0 532 -194.5t198 -520.5q0 -175 -64.5 -329.5t-183.5 -268.5
q-115 -108 -266 -165.5t-322 -57.5q-319 0 -515 196t-196 515q0 178 63 333.5t181 268.5q112 107 261 165t312 58zM1286 1905q-30 -112 -81.5 -165t-129.5 -53q-20 0 -40 3.5t-40 9.5l-59 18q-22 6 -34.5 8t-23.5 2q-32 0 -55 -20t-35 -59h-109q30 110 82.5 163.5
t130.5 53.5q19 0 40.5 -3.5t43.5 -9.5l58 -16q7 -2 19 -5q26 -7 34 -7q33 0 55.5 20t34.5 60h109z" />
    <glyph glyph-name="Odieresis" unicode="&#xd6;" horiz-adv-x="1743" 
d="M1415 780q0 231 -140.5 372.5t-371.5 141.5q-114 0 -217.5 -43t-179.5 -123q-88 -90 -134 -205t-46 -241q0 -229 138.5 -371.5t360.5 -142.5q251 0 420.5 175.5t169.5 436.5zM915 1499q334 0 532 -194.5t198 -520.5q0 -175 -64.5 -329.5t-183.5 -268.5
q-115 -108 -266 -165.5t-322 -57.5q-319 0 -515 196t-196 515q0 178 63 333.5t181 268.5q112 107 261 165t312 58zM1032 1773q0 47 36 83t83 36q49 0 84.5 -35t35.5 -84q0 -53 -34 -86.5t-86 -33.5q-50 0 -84.5 35t-34.5 85zM694 1773q0 47 36.5 83t82.5 36q49 0 84.5 -35
t35.5 -84q0 -53 -34 -86.5t-86 -33.5q-50 0 -84.5 35t-34.5 85z" />
    <glyph glyph-name="multiply" unicode="&#xd7;" horiz-adv-x="1706" 
d="M403 1188l459 -459l461 459l117 -117l-459 -461l459 -458l-117 -119l-461 461l-459 -461l-116 119l458 458l-458 461z" />
    <glyph glyph-name="Oslash" unicode="&#xd8;" horiz-adv-x="1743" 
d="M63 63l170 164q-68 94 -101.5 205.5t-33.5 247.5q0 181 62 335t182 269q111 108 260.5 164.5t323.5 56.5q145 0 264 -38.5t211 -114.5l155 151l101 -117l-152 -143q70 -99 103.5 -211t33.5 -246q0 -181 -62 -334t-183 -270q-114 -109 -265 -166t-325 -57
q-140 0 -255.5 39t-213.5 119l-174 -168zM502 274q63 -54 142.5 -80t182.5 -26q253 0 421.5 175.5t168.5 438.5q0 81 -20 155t-60 142zM401 391l836 803q-71 53 -152 78.5t-176 25.5q-248 0 -415.5 -177.5t-167.5 -440.5q0 -82 18.5 -153.5t56.5 -135.5z" />
    <glyph glyph-name="Ugrave" unicode="&#xd9;" horiz-adv-x="1479" 
d="M477 1464l-112 -850q-7 -47 -10 -85.5t-3 -67.5q0 -140 80 -214.5t230 -74.5q110 0 190.5 37t136.5 113q73 98 105 354q4 29 6 43l98 745h229l-108 -823q-28 -210 -61.5 -304t-92.5 -165q-86 -105 -220 -159t-308 -54q-250 0 -381 124t-131 359q0 52 8.5 145t24.5 208
l88 669h231zM999 1608h-116l-304 350h213z" />
    <glyph glyph-name="Uacute" unicode="&#xda;" horiz-adv-x="1479" 
d="M477 1464l-112 -850q-7 -47 -10 -85.5t-3 -67.5q0 -140 80 -214.5t230 -74.5q110 0 190.5 37t136.5 113q73 98 105 354q4 29 6 43l98 745h229l-108 -823q-28 -210 -61.5 -304t-92.5 -165q-86 -105 -220 -159t-308 -54q-250 0 -381 124t-131 359q0 52 8.5 145t24.5 208
l88 669h231zM838 1608h-132l222 350h213z" />
    <glyph glyph-name="Ucircumflex" unicode="&#xdb;" horiz-adv-x="1479" 
d="M477 1464l-112 -850q-7 -47 -10 -85.5t-3 -67.5q0 -140 80 -214.5t230 -74.5q110 0 190.5 37t136.5 113q73 98 105 354q4 29 6 43l98 745h229l-108 -823q-28 -210 -61.5 -304t-92.5 -165q-86 -105 -220 -159t-308 -54q-250 0 -381 124t-131 359q0 52 8.5 145t24.5 208
l88 669h231zM1139 1608h-117l-131 200l-217 -200h-129l254 350h213z" />
    <glyph glyph-name="Udieresis" unicode="&#xdc;" horiz-adv-x="1479" 
d="M477 1464l-112 -850q-7 -47 -10 -85.5t-3 -67.5q0 -140 80 -214.5t230 -74.5q110 0 190.5 37t136.5 113q73 98 105 354q4 29 6 43l98 745h229l-108 -823q-28 -210 -61.5 -304t-92.5 -165q-86 -105 -220 -159t-308 -54q-250 0 -381 124t-131 359q0 52 8.5 145t24.5 208
l88 669h231zM932 1773q0 47 36 83t83 36q49 0 84.5 -35t35.5 -84q0 -53 -34 -86.5t-86 -33.5q-50 0 -84.5 35t-34.5 85zM594 1773q0 47 36.5 83t82.5 36q49 0 84.5 -35t35.5 -84q0 -53 -34 -86.5t-86 -33.5q-50 0 -84.5 35t-34.5 85z" />
    <glyph glyph-name="Yacute" unicode="&#xdd;" horiz-adv-x="1204" 
d="M51 1464h248l244 -491q11 -20 38 -88q11 -27 17 -41q15 27 35 58.5t51 76.5l334 485h262l-586 -813l-86 -651h-231l88 659zM699 1608h-132l222 350h213z" />
    <glyph glyph-name="Thorn" unicode="&#xde;" horiz-adv-x="1124" 
d="M371 547h78q214 0 293 52t79 177q0 107 -66.5 151t-254.5 44h-74zM504 1180q192 0 271.5 -21t139.5 -69q67 -53 102.5 -130t35.5 -172q0 -112 -41 -202.5t-119 -151.5q-65 -51 -152 -72.5t-276 -21.5h-66h-55l-45 -340h-229l192 1464h230l-41 -284h53z" />
    <glyph glyph-name="germandbls" unicode="&#xdf;" horiz-adv-x="1208" 
d="M55 0l101 768h-93l25 180h92l21 162q31 241 141.5 351t319.5 110q202 0 322 -98.5t120 -264.5q0 -151 -94.5 -245.5t-264.5 -114.5q175 -31 263 -132t88 -272q0 -201 -146.5 -337t-365.5 -136q-44 0 -94.5 7t-110.5 22l41 190q44 -16 81 -24t70 -8q136 0 221 87.5
t85 227.5q0 146 -88.5 220.5t-262.5 74.5h-34l22 180q11 -1 23 -1.5t34 -0.5q153 0 235.5 64.5t82.5 183.5q0 92 -60 148.5t-159 56.5q-121 0 -178.5 -70t-81.5 -262l-140 -1067h-215z" />
    <glyph glyph-name="agrave" unicode="&#xe0;" horiz-adv-x="1176" 
d="M276 444q0 -136 63 -212t175 -76q129 0 204 103t75 284q0 123 -67 195.5t-181 72.5q-123 0 -196 -99t-73 -268zM938 0h-215l16 104q-56 -71 -129 -106t-168 -35q-186 0 -287.5 117.5t-101.5 333.5q0 255 124 411t325 156q95 0 176.5 -39.5t150.5 -120.5l19 127h215z
M790 1092h-116l-304 350h213z" />
    <glyph glyph-name="aacute" unicode="&#xe1;" horiz-adv-x="1176" 
d="M276 444q0 -136 63 -212t175 -76q129 0 204 103t75 284q0 123 -67 195.5t-181 72.5q-123 0 -196 -99t-73 -268zM938 0h-215l16 104q-56 -71 -129 -106t-168 -35q-186 0 -287.5 117.5t-101.5 333.5q0 255 124 411t325 156q95 0 176.5 -39.5t150.5 -120.5l19 127h215z
M629 1092h-132l222 350h213z" />
    <glyph glyph-name="acircumflex" unicode="&#xe2;" horiz-adv-x="1176" 
d="M276 444q0 -136 63 -212t175 -76q129 0 204 103t75 284q0 123 -67 195.5t-181 72.5q-123 0 -196 -99t-73 -268zM938 0h-215l16 104q-56 -71 -129 -106t-168 -35q-186 0 -287.5 117.5t-101.5 333.5q0 255 124 411t325 156q95 0 176.5 -39.5t150.5 -120.5l19 127h215z
M930 1092h-117l-131 200l-217 -200h-129l254 350h213z" />
    <glyph glyph-name="atilde" unicode="&#xe3;" horiz-adv-x="1176" 
d="M276 444q0 -136 63 -212t175 -76q129 0 204 103t75 284q0 123 -67 195.5t-181 72.5q-123 0 -196 -99t-73 -268zM938 0h-215l16 104q-56 -71 -129 -106t-168 -35q-186 0 -287.5 117.5t-101.5 333.5q0 255 124 411t325 156q95 0 176.5 -39.5t150.5 -120.5l19 127h215z
M977 1389q-30 -112 -81.5 -165t-129.5 -53q-20 0 -40 3.5t-40 9.5l-59 18q-22 6 -34.5 8t-23.5 2q-32 0 -55 -20t-35 -59h-109q30 110 82.5 163.5t130.5 53.5q19 0 40.5 -3.5t43.5 -9.5l58 -16q7 -2 19 -5q26 -7 34 -7q33 0 55.5 20t34.5 60h109z" />
    <glyph glyph-name="adieresis" unicode="&#xe4;" horiz-adv-x="1176" 
d="M276 444q0 -136 63 -212t175 -76q129 0 204 103t75 284q0 123 -67 195.5t-181 72.5q-123 0 -196 -99t-73 -268zM938 0h-215l16 104q-56 -71 -129 -106t-168 -35q-186 0 -287.5 117.5t-101.5 333.5q0 255 124 411t325 156q95 0 176.5 -39.5t150.5 -120.5l19 127h215z
M723 1257q0 47 36 83t83 36q49 0 84.5 -35t35.5 -84q0 -53 -34 -86.5t-86 -33.5q-50 0 -84.5 35t-34.5 85zM385 1257q0 47 36.5 83t82.5 36q49 0 84.5 -35t35.5 -84q0 -53 -34 -86.5t-86 -33.5q-50 0 -84.5 35t-34.5 85z" />
    <glyph glyph-name="aring" unicode="&#xe5;" horiz-adv-x="1176" 
d="M500 1278q0 -47 34 -82t80 -35q48 0 81.5 34t33.5 83t-32.5 82t-82.5 33q-47 0 -80.5 -33.5t-33.5 -81.5zM381 1278q0 98 67.5 165.5t165.5 67.5q97 0 165.5 -68t68.5 -165q0 -99 -68 -167.5t-166 -68.5t-165.5 68.5t-67.5 167.5zM938 0h-215l16 104q-56 -71 -129 -106
t-168 -35q-186 0 -287.5 117.5t-101.5 333.5q0 255 124 411t325 156q96 0 179 -40.5t148 -119.5l19 127h215zM276 444q0 -136 63 -212t175 -76q129 0 204 103t75 284q0 123 -67 195.5t-181 72.5q-123 0 -196 -99t-73 -268z" />
    <glyph glyph-name="ae" unicode="&#xe6;" horiz-adv-x="1735" 
d="M911 588h490q-3 96 -59.5 152.5t-151.5 56.5q-108 0 -183 -56.5t-96 -152.5zM459 442q-101 0 -157 -42.5t-56 -118.5q0 -72 54 -112t151 -40q110 0 171.5 41.5t61.5 116.5q0 72 -60 113.5t-165 41.5zM1389 291l155 -121q-82 -107 -182 -157t-232 -50q-113 0 -209 43
t-157 121q-72 -84 -159 -124t-199 -40q-177 0 -277 84t-100 232q0 153 107 238t300 85q86 0 153 -26t109 -76q3 27 4.5 51.5t2.5 46.5q0 115 -49.5 162t-170.5 47q-70 0 -147.5 -22t-159.5 -64l25 207q87 28 160 41.5t137 13.5q130 0 214.5 -40t119.5 -118
q54 73 150.5 115.5t207.5 42.5q200 0 314 -116.5t114 -321.5q0 -34 -1 -59t-3 -50h-723q0 -131 64 -206.5t173 -75.5q76 0 143.5 35.5t115.5 101.5z" />
    <glyph glyph-name="ccedilla" unicode="&#xe7;" horiz-adv-x="958" 
d="M870 678q-64 56 -134.5 85.5t-143.5 29.5q-145 0 -236.5 -102t-91.5 -265q0 -128 68 -201t186 -73q72 0 148 25t153 75l-45 -229q-59 -31 -124 -46.5t-138 -15.5q-214 0 -342.5 126.5t-128.5 336.5q0 246 154.5 401.5t398.5 155.5q91 0 169.5 -24t151.5 -74zM141 -426
l43 111q68 -24 124 -35.5t100 -11.5q55 0 86.5 24t31.5 66q0 41 -35.5 58t-125.5 17h-39l69 197h90l-34 -94h8q111 0 169 -43.5t58 -126.5q0 -102 -66 -158.5t-184 -56.5q-56 0 -126 12.5t-169 40.5z" />
    <glyph glyph-name="egrave" unicode="&#xe8;" horiz-adv-x="1102" 
d="M283 588h489q-3 96 -59.5 151.5t-151.5 55.5q-108 0 -183 -56t-95 -151zM760 291l155 -121q-83 -109 -180 -159t-223 -50q-211 0 -341 127.5t-130 335.5q0 244 149.5 400.5t380.5 156.5q193 0 307.5 -119.5t114.5 -320.5q0 -17 -1.5 -43.5t-4.5 -63.5h-723
q0 -129 65 -205.5t173 -76.5q75 0 142.5 36.5t115.5 102.5zM727 1092h-116l-304 350h213z" />
    <glyph glyph-name="eacute" unicode="&#xe9;" horiz-adv-x="1102" 
d="M283 588h489q-3 96 -59.5 151.5t-151.5 55.5q-108 0 -183 -56t-95 -151zM760 291l155 -121q-83 -109 -180 -159t-223 -50q-211 0 -341 127.5t-130 335.5q0 244 149.5 400.5t380.5 156.5q193 0 307.5 -119.5t114.5 -320.5q0 -17 -1.5 -43.5t-4.5 -63.5h-723
q0 -129 65 -205.5t173 -76.5q75 0 142.5 36.5t115.5 102.5zM566 1092h-132l222 350h213z" />
    <glyph glyph-name="ecircumflex" unicode="&#xea;" horiz-adv-x="1102" 
d="M283 588h489q-3 96 -59.5 151.5t-151.5 55.5q-108 0 -183 -56t-95 -151zM760 291l155 -121q-83 -109 -180 -159t-223 -50q-211 0 -341 127.5t-130 335.5q0 244 149.5 400.5t380.5 156.5q193 0 307.5 -119.5t114.5 -320.5q0 -17 -1.5 -43.5t-4.5 -63.5h-723
q0 -129 65 -205.5t173 -76.5q75 0 142.5 36.5t115.5 102.5zM867 1092h-117l-131 200l-217 -200h-129l254 350h213z" />
    <glyph glyph-name="edieresis" unicode="&#xeb;" horiz-adv-x="1102" 
d="M283 588h489q-3 96 -59.5 151.5t-151.5 55.5q-108 0 -183 -56t-95 -151zM760 291l155 -121q-83 -109 -180 -159t-223 -50q-211 0 -341 127.5t-130 335.5q0 244 149.5 400.5t380.5 156.5q193 0 307.5 -119.5t114.5 -320.5q0 -17 -1.5 -43.5t-4.5 -63.5h-723
q0 -129 65 -205.5t173 -76.5q75 0 142.5 36.5t115.5 102.5zM660 1257q0 47 36 83t83 36q49 0 84.5 -35t35.5 -84q0 -53 -34 -86.5t-86 -33.5q-50 0 -84.5 35t-34.5 85zM322 1257q0 47 36.5 83t82.5 36q49 0 84.5 -35t35.5 -84q0 -53 -34 -86.5t-86 -33.5q-50 0 -84.5 35
t-34.5 85z" />
    <glyph glyph-name="igrave" unicode="&#xec;" horiz-adv-x="526" 
d="M61 0l125 948h215l-125 -948h-215zM456 1092h-116l-304 350h213z" />
    <glyph glyph-name="iacute" unicode="&#xed;" horiz-adv-x="526" 
d="M61 0l125 948h215l-125 -948h-215zM295 1092h-132l222 350h213z" />
    <glyph glyph-name="icircumflex" unicode="&#xee;" horiz-adv-x="526" 
d="M61 0l125 948h215l-125 -948h-215zM596 1092h-117l-131 200l-217 -200h-129l254 350h213z" />
    <glyph glyph-name="idieresis" unicode="&#xef;" horiz-adv-x="526" 
d="M61 0l125 948h215l-125 -948h-215zM389 1257q0 47 36 83t83 36q49 0 84.5 -35t35.5 -84q0 -53 -34 -86.5t-86 -33.5q-50 0 -84.5 35t-34.5 85zM51 1257q0 47 36.5 83t82.5 36q49 0 84.5 -35t35.5 -84q0 -53 -34 -86.5t-86 -33.5q-50 0 -84.5 35t-34.5 85z" />
    <glyph glyph-name="eth" unicode="&#xf0;" horiz-adv-x="1169" 
d="M571 721q-140 0 -225.5 -89.5t-85.5 -236.5q0 -114 69 -179.5t189 -65.5q145 0 230.5 84t85.5 225q0 126 -68.5 194t-194.5 68zM881 762q-5 112 -36.5 215.5t-90.5 196.5l-305 -70l-33 113l270 63q-46 46 -86.5 81.5t-77.5 61.5l148 123q63 -43 117.5 -95t109.5 -122
l246 57l35 -112l-217 -51q63 -110 94.5 -245.5t31.5 -301.5q0 -345 -146.5 -531t-418.5 -186q-221 0 -355 120.5t-134 317.5q0 223 145 363.5t377 140.5q107 0 187 -34.5t139 -104.5z" />
    <glyph glyph-name="ntilde" unicode="&#xf1;" horiz-adv-x="1180" 
d="M735 0l72 545q2 15 3 31.5t1 48.5q0 93 -45 142.5t-131 49.5q-134 0 -210 -86.5t-99 -265.5l-60 -465h-215l125 948h207l-16 -114q82 75 169.5 111t186.5 36q146 0 227.5 -76.5t81.5 -214.5q0 -35 -4 -81.5t-12 -108.5l-66 -500h-215zM981 1389q-30 -112 -81.5 -165
t-129.5 -53q-20 0 -40 3.5t-40 9.5l-59 18q-22 6 -34.5 8t-23.5 2q-32 0 -55 -20t-35 -59h-109q30 110 82.5 163.5t130.5 53.5q19 0 40.5 -3.5t43.5 -9.5l58 -16q7 -2 19 -5q26 -7 34 -7q33 0 55.5 20t34.5 60h109z" />
    <glyph glyph-name="ograve" unicode="&#xf2;" horiz-adv-x="1169" 
d="M584 793q-143 0 -233.5 -103t-90.5 -264q0 -128 68 -201t186 -73q149 0 238.5 98t89.5 264q0 133 -67.5 206t-190.5 73zM582 983q221 0 353 -129.5t132 -345.5q0 -239 -155 -393t-398 -154q-217 0 -347 127t-130 338q0 246 152 401.5t393 155.5zM762 1092h-116l-304 350
h213z" />
    <glyph glyph-name="oacute" unicode="&#xf3;" horiz-adv-x="1169" 
d="M584 793q-143 0 -233.5 -103t-90.5 -264q0 -128 68 -201t186 -73q149 0 238.5 98t89.5 264q0 133 -67.5 206t-190.5 73zM582 983q221 0 353 -129.5t132 -345.5q0 -239 -155 -393t-398 -154q-217 0 -347 127t-130 338q0 246 152 401.5t393 155.5zM601 1092h-132l222 350
h213z" />
    <glyph glyph-name="ocircumflex" unicode="&#xf4;" horiz-adv-x="1169" 
d="M584 793q-143 0 -233.5 -103t-90.5 -264q0 -128 68 -201t186 -73q149 0 238.5 98t89.5 264q0 133 -67.5 206t-190.5 73zM582 983q221 0 353 -129.5t132 -345.5q0 -239 -155 -393t-398 -154q-217 0 -347 127t-130 338q0 246 152 401.5t393 155.5zM902 1092h-117l-131 200
l-217 -200h-129l254 350h213z" />
    <glyph glyph-name="otilde" unicode="&#xf5;" horiz-adv-x="1169" 
d="M584 793q-143 0 -233.5 -103t-90.5 -264q0 -128 68 -201t186 -73q149 0 238.5 98t89.5 264q0 133 -67.5 206t-190.5 73zM582 983q221 0 353 -129.5t132 -345.5q0 -239 -155 -393t-398 -154q-217 0 -347 127t-130 338q0 246 152 401.5t393 155.5zM949 1389
q-30 -112 -81.5 -165t-129.5 -53q-20 0 -40 3.5t-40 9.5l-59 18q-22 6 -34.5 8t-23.5 2q-32 0 -55 -20t-35 -59h-109q30 110 82.5 163.5t130.5 53.5q19 0 40.5 -3.5t43.5 -9.5l58 -16q7 -2 19 -5q26 -7 34 -7q33 0 55.5 20t34.5 60h109z" />
    <glyph glyph-name="odieresis" unicode="&#xf6;" horiz-adv-x="1169" 
d="M584 793q-143 0 -233.5 -103t-90.5 -264q0 -128 68 -201t186 -73q149 0 238.5 98t89.5 264q0 133 -67.5 206t-190.5 73zM582 983q221 0 353 -129.5t132 -345.5q0 -239 -155 -393t-398 -154q-217 0 -347 127t-130 338q0 246 152 401.5t393 155.5zM695 1257q0 47 36 83
t83 36q49 0 84.5 -35t35.5 -84q0 -53 -34 -86.5t-86 -33.5q-50 0 -84.5 35t-34.5 85zM357 1257q0 47 36.5 83t82.5 36q49 0 84.5 -35t35.5 -84q0 -53 -34 -86.5t-86 -33.5q-50 0 -84.5 35t-34.5 85z" />
    <glyph glyph-name="divide" unicode="&#xf7;" horiz-adv-x="1706" 
d="M854 367q57 0 97 -40.5t40 -97.5q0 -56 -39.5 -95.5t-97.5 -39.5t-97.5 39t-39.5 96t40.5 97.5t96.5 40.5zM254 694h1198v-166h-1198v166zM854 1128q57 0 97 -41t40 -98q0 -56 -39.5 -95.5t-97.5 -39.5t-97.5 39t-39.5 96t40.5 98t96.5 41z" />
    <glyph glyph-name="oslash" unicode="&#xf8;" horiz-adv-x="1169" 
d="M328 207q47 -32 93 -48t89 -16q149 0 244.5 101t95.5 258q0 40 -6 78t-19 75zM770 741q-49 30 -95.5 45t-92.5 15q-143 0 -236.5 -107t-93.5 -274q0 -31 5.5 -63t16.5 -64zM25 -63l-64 77l150 136q-39 59 -57.5 129.5t-18.5 156.5q0 238 155.5 392.5t397.5 154.5
q104 0 183.5 -27.5t139.5 -85.5l146 136l71 -78l-147 -135q44 -56 65 -125.5t21 -157.5q0 -242 -155 -395.5t-402 -153.5q-100 0 -181 28.5t-147 86.5z" />
    <glyph glyph-name="ugrave" unicode="&#xf9;" horiz-adv-x="1169" 
d="M168 948h215l-51 -397q-2 -13 -5 -37q-18 -130 -18 -172q0 -92 51 -141t146 -49q132 0 192.5 72t87.5 278l60 446h215l-64 -481q-25 -186 -56.5 -261.5t-88.5 -129.5q-62 -57 -152.5 -86t-207.5 -29q-199 0 -299.5 90t-100.5 268q0 47 18 189l1 2zM788 1092h-116
l-304 350h213z" />
    <glyph glyph-name="uacute" unicode="&#xfa;" horiz-adv-x="1169" 
d="M168 948h215l-51 -397q-2 -13 -5 -37q-18 -130 -18 -172q0 -92 51 -141t146 -49q132 0 192.5 72t87.5 278l60 446h215l-64 -481q-25 -186 -56.5 -261.5t-88.5 -129.5q-62 -57 -152.5 -86t-207.5 -29q-199 0 -299.5 90t-100.5 268q0 47 18 189l1 2zM627 1092h-132l222 350
h213z" />
    <glyph glyph-name="ucircumflex" unicode="&#xfb;" horiz-adv-x="1169" 
d="M168 948h215l-51 -397q-2 -13 -5 -37q-18 -130 -18 -172q0 -92 51 -141t146 -49q132 0 192.5 72t87.5 278l60 446h215l-64 -481q-25 -186 -56.5 -261.5t-88.5 -129.5q-62 -57 -152.5 -86t-207.5 -29q-199 0 -299.5 90t-100.5 268q0 47 18 189l1 2zM928 1092h-117
l-131 200l-217 -200h-129l254 350h213z" />
    <glyph glyph-name="udieresis" unicode="&#xfc;" horiz-adv-x="1169" 
d="M168 948h215l-51 -397q-2 -13 -5 -37q-18 -130 -18 -172q0 -92 51 -141t146 -49q132 0 192.5 72t87.5 278l60 446h215l-64 -481q-25 -186 -56.5 -261.5t-88.5 -129.5q-62 -57 -152.5 -86t-207.5 -29q-199 0 -299.5 90t-100.5 268q0 47 18 189l1 2zM721 1257q0 47 36 83
t83 36q49 0 84.5 -35t35.5 -84q0 -53 -34 -86.5t-86 -33.5q-50 0 -84.5 35t-34.5 85zM383 1257q0 47 36.5 83t82.5 36q49 0 84.5 -35t35.5 -84q0 -53 -34 -86.5t-86 -33.5q-50 0 -84.5 35t-34.5 85z" />
    <glyph glyph-name="yacute" unicode="&#xfd;" horiz-adv-x="952" 
d="M133 -446h-225l383 600l-275 794h224l141 -456q8 -25 15.5 -70t15.5 -111q15 42 34.5 84t45.5 84l274 469h240zM500 1092h-132l222 350h213z" />
    <glyph glyph-name="thorn" unicode="&#xfe;" horiz-adv-x="1176" 
d="M838 504q0 137 -61 212t-173 75q-131 0 -206.5 -103t-75.5 -282q0 -121 67.5 -193t181.5 -72q125 0 196 96.5t71 266.5zM283 133l-76 -582h-215l264 1999h215l-90 -706q57 69 129 103t164 34q186 0 286.5 -116t100.5 -330q0 -252 -124 -408t-323 -156q-95 0 -177 40.5
t-154 121.5z" />
    <glyph glyph-name="ydieresis" unicode="&#xff;" horiz-adv-x="952" 
d="M133 -446h-225l383 600l-275 794h224l141 -456q8 -25 15.5 -70t15.5 -111q15 42 34.5 84t45.5 84l274 469h240zM594 1257q0 47 36 83t83 36q49 0 84.5 -35t35.5 -84q0 -53 -34 -86.5t-86 -33.5q-50 0 -84.5 35t-34.5 85zM256 1257q0 47 36.5 83t82.5 36q49 0 84.5 -35
t35.5 -84q0 -53 -34 -86.5t-86 -33.5q-50 0 -84.5 35t-34.5 85z" />
    <glyph glyph-name="Cacute" unicode="&#x106;" horiz-adv-x="1374" 
d="M1337 1368l-37 -250q-85 89 -184.5 132.5t-216.5 43.5q-120 0 -222.5 -41.5t-174.5 -119.5q-85 -91 -130.5 -209.5t-45.5 -245.5q0 -226 138.5 -368t358.5 -142q110 0 211.5 38t196.5 113l-51 -280q-100 -39 -192 -58.5t-177 -19.5q-320 0 -516.5 195.5t-196.5 513.5
q0 176 62.5 334.5t177.5 273.5q107 107 245 163t296 56q142 0 255.5 -32t202.5 -97zM900 1608h-132l222 350h213z" />
    <glyph glyph-name="cacute" unicode="&#x107;" horiz-adv-x="958" 
d="M870 678q-64 56 -134.5 85.5t-143.5 29.5q-145 0 -236.5 -102t-91.5 -265q0 -128 68 -201t186 -73q72 0 148 25t153 75l-45 -229q-59 -31 -124 -46.5t-138 -15.5q-214 0 -342.5 126.5t-128.5 336.5q0 246 154.5 401.5t398.5 155.5q91 0 169.5 -24t151.5 -74zM603 1092
h-132l222 350h213z" />
    <glyph glyph-name="Ccaron" unicode="&#x10c;" horiz-adv-x="1374" 
d="M1337 1368l-37 -250q-85 89 -184.5 132.5t-216.5 43.5q-120 0 -222.5 -41.5t-174.5 -119.5q-85 -91 -130.5 -209.5t-45.5 -245.5q0 -226 138.5 -368t358.5 -142q110 0 211.5 38t196.5 113l-51 -280q-100 -39 -192 -58.5t-177 -19.5q-320 0 -516.5 195.5t-196.5 513.5
q0 176 62.5 334.5t177.5 273.5q107 107 245 163t296 56q142 0 255.5 -32t202.5 -97zM676 1958h117l129 -201l217 201h131l-254 -350h-213z" />
    <glyph glyph-name="ccaron" unicode="&#x10d;" horiz-adv-x="958" 
d="M870 678q-64 56 -134.5 85.5t-143.5 29.5q-145 0 -236.5 -102t-91.5 -265q0 -128 68 -201t186 -73q72 0 148 25t153 75l-45 -229q-59 -31 -124 -46.5t-138 -15.5q-214 0 -342.5 126.5t-128.5 336.5q0 246 154.5 401.5t398.5 155.5q91 0 169.5 -24t151.5 -74zM379 1442
h117l129 -201l217 201h131l-254 -350h-213z" />
    <glyph glyph-name="dcroat" unicode="&#x111;" horiz-adv-x="1186" 
d="M276 442q0 -136 63.5 -213t174.5 -77q129 0 204 104.5t75 286.5q0 122 -67 195t-181 73q-124 0 -196.5 -100t-72.5 -269zM1112 1319h240l-21 -158h-239l-152 -1161h-211l12 96q-66 -69 -138.5 -102t-160.5 -33q-186 0 -287.5 117.5t-101.5 333.5q0 255 124 412t323 157
q98 0 180.5 -40.5t150.5 -123.5l46 344h-353l23 158h350l31 231h215z" />
    <glyph glyph-name="Gbreve" unicode="&#x11e;" horiz-adv-x="1661" 
d="M1386 1049q-96 124 -214.5 184.5t-264.5 60.5q-116 0 -218.5 -42t-180.5 -122q-88 -91 -135 -206t-47 -240q0 -231 140 -372.5t370 -141.5q182 0 307 101.5t145 265.5h-379l25 208h625q0 -363 -198 -572.5t-538 -209.5q-328 0 -526.5 195t-198.5 518q0 180 62.5 335.5
t179.5 266.5q113 108 260.5 164.5t317.5 56.5q202 0 350.5 -70t279.5 -227zM703 1927h112v-6q0 -73 34.5 -105t112.5 -32q83 0 139 35.5t87 107.5h116q-41 -145 -130.5 -218t-225.5 -73q-125 0 -186.5 61.5t-61.5 186.5q0 18 0.5 26.5t2.5 16.5z" />
    <glyph glyph-name="gbreve" unicode="&#x11f;" horiz-adv-x="1176" 
d="M276 459q0 -132 63.5 -206.5t174.5 -74.5q127 0 204 98.5t77 264.5q0 126 -68 201t-182 75q-122 0 -195.5 -97.5t-73.5 -260.5zM938 12q-31 -233 -150 -345.5t-335 -112.5q-193 0 -313 93.5t-140 260.5l197 26q12 -100 74 -147t182 -47q145 0 207.5 80.5t76.5 300.5
q-62 -65 -135 -97t-160 -32q-183 0 -286 116t-103 324q0 245 125 397t324 152q93 0 175.5 -38.5t156.5 -117.5l18 123h211zM388 1411h112v-6q0 -73 34.5 -105t112.5 -32q83 0 139 35.5t87 107.5h116q-41 -145 -130.5 -218t-225.5 -73q-125 0 -186.5 61.5t-61.5 186.5
q0 18 0.5 26.5t2.5 16.5z" />
    <glyph glyph-name="Idotaccent" unicode="&#x130;" horiz-adv-x="569" 
d="M72 0l192 1464h234l-195 -1464h-231zM553 1771q0 -47 -40 -86t-87 -39q-51 0 -88 37.5t-37 87.5q0 55 35.5 91t89.5 36q51 0 89 -37.5t38 -89.5z" />
    <glyph glyph-name="dotlessi" unicode="&#x131;" horiz-adv-x="526" 
d="M61 0l125 948h215l-125 -948h-215z" />
    <glyph glyph-name="Lslash" unicode="&#x141;" horiz-adv-x="985" 
d="M92 0l78 592l-156 -90l-80 149l265 154l88 659h229l-72 -538l254 147l90 -147l-372 -213l-64 -488h547l-29 -225h-778z" />
    <glyph glyph-name="lslash" unicode="&#x142;" horiz-adv-x="563" 
d="M414 909l135 78l76 -135l-236 -137l-94 -715h-215l78 602l-135 -80l-76 135l237 138l99 755h217z" />
    <glyph glyph-name="OE" unicode="&#x152;" horiz-adv-x="2277" 
d="M1403 786q0 228 -138.5 367t-365.5 139q-115 0 -218.5 -42.5t-178.5 -121.5q-88 -90 -134 -205t-46 -241q0 -230 137.5 -373t357.5 -143q250 0 418 177.5t168 442.5zM1294 0l23 170q-97 -103 -227 -157t-283 -54q-321 0 -516 196t-195 519q0 178 62.5 334t177.5 268
q113 110 258.5 166.5t314.5 56.5q183 0 317.5 -62.5t231.5 -193.5l29 221h813l-29 -207h-592l-49 -368h594l-29 -205h-591l-62 -473h592l-27 -211h-813z" />
    <glyph glyph-name="oe" unicode="&#x153;" horiz-adv-x="1872" 
d="M1055 588h489q-3 97 -59.5 153t-151.5 56q-108 0 -183 -56.5t-95 -152.5zM578 793q-141 0 -230.5 -101t-89.5 -262q0 -129 67.5 -203.5t182.5 -74.5q147 0 236.5 99t89.5 265q0 133 -67 205t-189 72zM1532 291l156 -121q-83 -107 -182.5 -158t-225.5 -51
q-124 0 -221 46.5t-148 129.5q-65 -88 -165 -132t-236 -44q-217 0 -346 126.5t-129 338.5q0 246 151.5 401.5t391.5 155.5q126 0 221 -42t155 -124q73 80 169 123t202 43q208 0 323 -115t115 -323q0 -34 -1 -59t-3 -50h-723q0 -131 64 -207.5t174 -76.5q75 0 142.5 36.5
t115.5 102.5z" />
    <glyph glyph-name="Scedilla" unicode="&#x15e;" horiz-adv-x="1065" 
d="M-18 252l161 133q60 -120 129 -173.5t162 -53.5q116 0 188 68t72 177q0 77 -38 130.5t-134 109.5q-20 12 -59 34q-164 91 -221 154q-41 45 -61.5 104t-20.5 128q0 193 124 314.5t324 121.5q135 0 236.5 -55t167.5 -164l-140 -129q-49 80 -109 119t-134 39
q-108 0 -175 -63t-67 -163q0 -120 193 -224q48 -25 73 -40q148 -86 209.5 -178.5t61.5 -226.5q0 -208 -134 -330.5t-364 -122.5q-156 0 -266.5 72t-177.5 219zM122 -426l43 111q68 -24 124 -35.5t100 -11.5q55 0 86.5 24t31.5 66q0 41 -35.5 58t-125.5 17h-39l69 197h90
l-34 -94h8q111 0 169 -43.5t58 -126.5q0 -102 -66 -158.5t-184 -56.5q-56 0 -126 12.5t-169 40.5z" />
    <glyph glyph-name="scedilla" unicode="&#x15f;" horiz-adv-x="825" 
d="M94 279q53 -74 117 -113t133 -39q68 0 109 30.5t41 80.5q0 71 -152 155l-8 4q-145 82 -190.5 141.5t-45.5 143.5q0 134 99 217.5t258 83.5q97 0 179 -36t154 -109l-133 -138q-46 57 -103 87t-120 30q-51 0 -87 -31t-36 -73q0 -69 128 -132q47 -24 73 -38
q111 -61 153 -121.5t42 -149.5q0 -142 -99 -226.5t-266 -84.5q-110 0 -204.5 44.5t-166.5 129.5zM4 -426l43 111q68 -24 124 -35.5t100 -11.5q55 0 86.5 24t31.5 66q0 41 -35.5 58t-125.5 17h-39l69 197h90l-34 -94h8q111 0 169 -43.5t58 -126.5q0 -102 -66 -158.5
t-184 -56.5q-56 0 -126 12.5t-169 40.5z" />
    <glyph glyph-name="Scaron" unicode="&#x160;" horiz-adv-x="1065" 
d="M-18 252l161 133q60 -120 129 -173.5t162 -53.5q116 0 188 68t72 177q0 77 -38 130.5t-134 109.5q-20 12 -59 34q-164 91 -221 154q-41 45 -61.5 104t-20.5 128q0 193 124 314.5t324 121.5q135 0 236.5 -55t167.5 -164l-140 -129q-49 80 -109 119t-134 39
q-108 0 -175 -63t-67 -163q0 -120 193 -224q48 -25 73 -40q148 -86 209.5 -178.5t61.5 -226.5q0 -208 -134 -330.5t-364 -122.5q-156 0 -266.5 72t-177.5 219zM405 1958h117l129 -201l217 201h131l-254 -350h-213z" />
    <glyph glyph-name="scaron" unicode="&#x161;" horiz-adv-x="825" 
d="M94 279q53 -74 117 -113t133 -39q68 0 109 30.5t41 80.5q0 71 -152 155l-8 4q-145 82 -190.5 141.5t-45.5 143.5q0 134 99 217.5t258 83.5q97 0 179 -36t154 -109l-133 -138q-46 57 -103 87t-120 30q-51 0 -87 -31t-36 -73q0 -69 128 -132q47 -24 73 -38
q111 -61 153 -121.5t42 -149.5q0 -142 -99 -226.5t-266 -84.5q-110 0 -204.5 44.5t-166.5 129.5zM213 1442h117l129 -201l217 201h131l-254 -350h-213z" />
    <glyph glyph-name="Ydieresis" unicode="&#x178;" horiz-adv-x="1204" 
d="M51 1464h248l244 -491q11 -20 38 -88q11 -27 17 -41q15 27 35 58.5t51 76.5l334 485h262l-586 -813l-86 -651h-231l88 659zM793 1773q0 47 36 83t83 36q49 0 84.5 -35t35.5 -84q0 -53 -34 -86.5t-86 -33.5q-50 0 -84.5 35t-34.5 85zM455 1773q0 47 36.5 83t82.5 36
q49 0 84.5 -35t35.5 -84q0 -53 -34 -86.5t-86 -33.5q-50 0 -84.5 35t-34.5 85z" />
    <glyph glyph-name="Zcaron" unicode="&#x17d;" horiz-adv-x="1176" 
d="M-59 0l864 1247h-647l28 217h1035l-863 -1247h717l-28 -217h-1106zM461 1958h117l129 -201l217 201h131l-254 -350h-213z" />
    <glyph glyph-name="zcaron" unicode="&#x17e;" horiz-adv-x="967" 
d="M-45 0l512 668q19 24 43.5 48.5t56.5 51.5h-469l23 180h817l-518 -674q-20 -26 -42.5 -50t-47.5 -44h532l-22 -180h-885zM282 1442h117l129 -201l217 201h131l-254 -350h-213z" />
    <glyph glyph-name="florin" unicode="&#x192;" horiz-adv-x="1208" 
d="M682 782l-94 -757q-35 -281 -108 -378.5t-228 -97.5q-33 0 -69.5 6.5t-86.5 20.5l41 202q27 -10 48.5 -16t35.5 -6q68 0 99 51t59 279l84 696h-211l16 166h211l21 152q26 196 101 287.5t210 91.5q45 0 90.5 -8.5t91.5 -24.5l-20 -191q-38 15 -65.5 22t-47.5 7
q-64 0 -94.5 -43.5t-50.5 -183.5l-17 -109h232l-17 -166h-231z" />
    <glyph glyph-name="circumflex" unicode="&#x2c6;" 
d="M836 1092h-117l-131 200l-217 -200h-129l254 350h213z" />
    <glyph glyph-name="caron" unicode="&#x2c7;" 
d="M311 1442h117l129 -201l217 201h131l-254 -350h-213z" />
    <glyph glyph-name="breve" unicode="&#x2d8;" 
d="M312 1411h112v-6q0 -73 34.5 -105t112.5 -32q83 0 139 35.5t87 107.5h116q-41 -145 -130.5 -218t-225.5 -73q-125 0 -186.5 61.5t-61.5 186.5q0 18 0.5 26.5t2.5 16.5z" />
    <glyph glyph-name="dotaccent" unicode="&#x2d9;" 
d="M707 1255q0 -47 -40 -86t-87 -39q-51 0 -88 37.5t-37 87.5q0 55 35.5 91t89.5 36q51 0 89 -37.5t38 -89.5z" />
    <glyph glyph-name="ring" unicode="&#x2da;" 
d="M463 1329q0 -56 40 -94.5t97 -38.5t95 38t38 95q0 59 -38 98t-95 39q-58 0 -97.5 -39t-39.5 -98zM340 1331q0 108 75 183t183 75t183 -75t75 -183q0 -109 -74.5 -183.5t-183.5 -74.5t-183.5 74.5t-74.5 183.5z" />
    <glyph glyph-name="ogonek" unicode="&#x2db;" 
d="M483 0q-68 -59 -99.5 -110t-31.5 -103q0 -43 20.5 -61.5t67.5 -18.5h101l-21 -156h-82q-118 0 -174.5 44t-56.5 137q0 64 46 129.5t142 138.5h88z" />
    <glyph glyph-name="tilde" unicode="&#x2dc;" 
d="M883 1389q-30 -112 -81.5 -165t-129.5 -53q-20 0 -40 3.5t-40 9.5l-59 18q-22 6 -34.5 8t-23.5 2q-32 0 -55 -20t-35 -59h-109q30 110 82.5 163.5t130.5 53.5q19 0 40.5 -3.5t43.5 -9.5l58 -16q7 -2 19 -5q26 -7 34 -7q33 0 55.5 20t34.5 60h109z" />
    <glyph glyph-name="hungarumlaut" unicode="&#x2dd;" 
d="M801 1442h186l-270 -350h-103zM510 1442h188l-231 -350h-105z" />
    <glyph glyph-name="uni03A9" unicode="&#x3a9;" horiz-adv-x="1569" 
d="M1194 213h305v-213h-602v229q160 94 242 244.5t82 351.5q0 210 -121 341.5t-316 131.5q-197 0 -316.5 -132.5t-119.5 -352.5q0 -191 84 -342t240 -242v-229h-602v213h305q-144 130 -211.5 274t-67.5 322q0 314 190.5 508t497.5 194q303 0 496 -192.5t193 -493.5
q0 -190 -65.5 -333t-213.5 -279z" />
    <glyph glyph-name="pi" unicode="&#x3c0;" horiz-adv-x="1368" 
d="M360 889h-45q-54 0 -83.5 -31.5t-39.5 -99.5h-174q28 187 100 255t242 68h953l-39 -192h-193l-84 -437q-2 -13 -8 -41q-22 -113 -22 -147q0 -58 23 -82t77 -24q18 0 42.5 2.5t59.5 7.5l-34 -168q-29 -8 -61 -12t-75 -4q-139 0 -202.5 48t-63.5 154q0 77 52 344l1 6
l70 353h-268l-174 -889h-226z" />
    <glyph glyph-name="endash" unicode="&#x2013;" 
d="M-41 401l18 142h1024l-18 -142h-1024z" />
    <glyph glyph-name="emdash" unicode="&#x2014;" horiz-adv-x="2048" 
d="M-41 401l18 142h2048l-18 -142h-2048z" />
    <glyph glyph-name="quoteleft" unicode="&#x2018;" horiz-adv-x="604" 
d="M307 911l-178 105l348 481l119 -72z" />
    <glyph glyph-name="quoteright" unicode="&#x2019;" horiz-adv-x="604" 
d="M416 1497l180 -102l-348 -484l-121 72z" />
    <glyph glyph-name="quotesinglbase" unicode="&#x201a;" horiz-adv-x="604" 
d="M215 293l178 -105l-348 -481l-119 72z" />
    <glyph glyph-name="quotedblleft" unicode="&#x201c;" horiz-adv-x="963" 
d="M301 911l-178 105l348 481l119 -72zM659 911l-178 105l348 481l119 -72z" />
    <glyph glyph-name="quotedblright" unicode="&#x201d;" horiz-adv-x="963" 
d="M772 1497l180 -102l-350 -484l-119 72zM416 1497l178 -102l-348 -484l-119 72z" />
    <glyph glyph-name="quotedblbase" unicode="&#x201e;" horiz-adv-x="963" 
d="M215 293l178 -105l-348 -481l-119 72zM573 293l179 -105l-349 -481l-118 72z" />
    <glyph glyph-name="dagger" unicode="&#x2020;" horiz-adv-x="1139" 
d="M313 -446l158 1194h-408l23 174h408l71 542h201l-72 -542h408l-23 -174h-407l-158 -1194h-201z" />
    <glyph glyph-name="daggerdbl" unicode="&#x2021;" horiz-adv-x="1139" 
d="M311 -446l64 477h-406l25 172h403l82 635h-403l22 172h406l59 454h205l-59 -454h403l-22 -172h-406l-82 -635h404l-23 -172h-403l-64 -477h-205z" />
    <glyph glyph-name="bullet" unicode="&#x2022;" horiz-adv-x="1208" 
d="M307 762q0 123 87 209t210 86q122 0 208.5 -86.5t86.5 -208.5t-87.5 -209.5t-209.5 -87.5q-123 0 -209 87t-86 210z" />
    <glyph glyph-name="ellipsis" unicode="&#x2026;" horiz-adv-x="2048" 
d="M135 111q0 55 38 94t93 39t93 -39t38 -94q0 -54 -38 -91.5t-93 -37.5t-93 37.5t-38 91.5zM817 111q0 55 38 94t93 39t93 -39t38 -94q0 -54 -38 -91.5t-93 -37.5t-93 37.5t-38 91.5zM1501 111q0 55 38 94t93 39t93 -39t38 -94q0 -54 -38 -91.5t-93 -37.5t-93 37.5
t-38 91.5z" />
    <glyph glyph-name="perthousand" unicode="&#x2030;" horiz-adv-x="2245" 
d="M412 1364q-78 0 -131.5 -99t-53.5 -247q0 -93 27 -138.5t82 -45.5q78 0 131 102t53 260q0 83 -27.5 125.5t-80.5 42.5zM410 1481q137 0 205.5 -81t68.5 -243q0 -191 -99 -316.5t-247 -125.5q-137 0 -207 80t-70 237q0 198 98 323.5t251 125.5zM1907 606
q-78 0 -131.5 -98.5t-53.5 -247.5q0 -93 27 -138.5t82 -45.5q78 0 131 102t53 258q0 85 -27.5 127.5t-80.5 42.5zM1905 725q136 0 205 -82.5t69 -245.5q0 -190 -98.5 -314t-247.5 -124q-138 0 -207.5 79t-69.5 236q0 199 98.5 325t250.5 126zM1174 606q-78 0 -131.5 -98.5
t-53.5 -247.5q0 -93 27 -138.5t82 -45.5q78 0 131 102t53 258q0 85 -27.5 127.5t-80.5 42.5zM1171 725q137 0 206 -82.5t69 -245.5q0 -190 -98.5 -314t-247.5 -124q-138 0 -207.5 79t-69.5 236q0 199 98 325t250 126zM250 -41l850 1522h147l-852 -1522h-145z" />
    <glyph glyph-name="guilsinglleft" unicode="&#x2039;" horiz-adv-x="588" 
d="M37 477l364 420l121 -100l-293 -332l207 -336l-133 -84z" />
    <glyph glyph-name="guilsinglright" unicode="&#x203a;" horiz-adv-x="588" 
d="M485 467l-364 -422l-121 102l293 332l-207 336l133 82z" />
    <glyph glyph-name="franc" unicode="&#x20a3;" horiz-adv-x="1831" 
d="M70 0l192 1464h821l-26 -207h-594l-47 -368h592l-27 -205h-594l-88 -684h-229zM1794 758q-22 16 -47.5 24.5t-54.5 8.5q-115 0 -181 -85t-89 -262l-60 -444h-215l125 948h207l-16 -123q56 79 122.5 117.5t143.5 38.5q35 0 69 -9t66 -28z" />
    <glyph glyph-name="trademark" unicode="&#x2122;" horiz-adv-x="1706" 
d="M809 1460h170l141 -360l133 360h170v-542h-114v428l-160 -428h-59l-166 428v-428h-115v542zM225 1460h467v-94h-168v-448h-129v448h-170v94z" />
    <glyph glyph-name="partialdiff" unicode="&#x2202;" horiz-adv-x="1075" 
d="M758 639q17 103 26 186.5t9 147.5q0 120 -29 174.5t-92 54.5q-62 0 -147 -58.5t-122 -58.5t-64.5 26t-27.5 60q0 66 79 115t200 49q176 0 287.5 -159t111.5 -422q0 -338 -150 -558.5t-376 -220.5q-161 0 -266 112t-105 286q0 193 113 322.5t278 129.5q101 0 167.5 -45
t107.5 -141zM705 504q0 116 -41 178.5t-117 62.5q-105 0 -174.5 -131.5t-69.5 -337.5q0 -116 40.5 -177.5t117.5 -61.5q105 0 174.5 132.5t69.5 334.5z" />
    <glyph glyph-name="Delta" unicode="&#x2206;" horiz-adv-x="1395" 
d="M698 1196l-379 -983h756zM569 1473h256l574 -1473h-1403z" />
    <glyph glyph-name="product" unicode="&#x220f;" horiz-adv-x="1579" 
d="M154 1473h1267v-1866h-286v1622h-695v-1622h-286v1866z" />
    <glyph glyph-name="summation" unicode="&#x2211;" horiz-adv-x="1421" 
d="M61 1473h1280v-226h-921l647 -684l-661 -729h974v-227h-1347v160l712 786l-684 719v201z" />
    <glyph glyph-name="minus" unicode="&#x2212;" horiz-adv-x="1706" 
d="M254 696h1198v-170h-1198v170z" />
    <glyph glyph-name="uni2215" unicode="&#x2215;" horiz-adv-x="342" 
d="M-342 -39l866 1518h158l-870 -1518h-154z" />
    <glyph glyph-name="uni2219" unicode="&#x2219;" horiz-adv-x="604" 
d="M170 721q0 55 38 93t93 38t93 -38t38 -93q0 -54 -38 -92.5t-93 -38.5t-93 38.5t-38 92.5z" />
    <glyph glyph-name="radical" unicode="&#x221a;" horiz-adv-x="1323" 
d="M1128 1675h197v-110h-108l-594 -1606h-82l-316 872l-131 -49l-28 95l305 108l247 -688z" />
    <glyph glyph-name="infinity" unicode="&#x221e;" horiz-adv-x="1706" 
d="M928 559q45 -81 109.5 -122.5t146.5 -41.5q97 0 159 61.5t62 157.5q0 95 -57 158.5t-142 63.5q-78 0 -142 -63.5t-136 -213.5zM780 662q-46 81 -111 123t-145 42q-98 0 -159.5 -62t-61.5 -159q0 -94 56.5 -156.5t140.5 -62.5q80 0 144.5 62.5t135.5 212.5zM862 471
q-71 -135 -148.5 -197.5t-172.5 -62.5q-137 0 -232.5 114.5t-95.5 284.5q0 179 85 289.5t220 110.5q93 0 168.5 -60t157.5 -200q71 139 149.5 200.5t184.5 61.5q127 0 222 -116t95 -284q0 -178 -84.5 -288.5t-220.5 -110.5q-92 0 -166.5 57.5t-161.5 200.5z" />
    <glyph glyph-name="integral" unicode="&#x222b;" horiz-adv-x="1120" 
d="M324 -258q106 0 122 692q2 81 3 123q13 538 113 766.5t312 228.5q87 0 143 -45.5t56 -111.5q0 -61 -34 -95t-95 -34q-45 0 -74.5 22.5t-40.5 65.5q-4 17 -6 45q-3 40 -26 41q-101 0 -119 -615q-5 -161 -8 -249q-10 -280 -30.5 -427t-59.5 -245q-55 -136 -139.5 -205.5
t-194.5 -69.5q-87 0 -142 44t-55 112q0 63 35.5 97t99.5 34q39 0 66 -18t41 -54q6 -16 9 -59t24 -43z" />
    <glyph glyph-name="approxequal" unicode="&#x2248;" horiz-adv-x="1706" 
d="M1530 592v-186q-107 -73 -200 -106.5t-189 -33.5q-89 0 -279.5 66.5t-298.5 66.5q-84 0 -173.5 -36t-211.5 -121v184q112 75 206.5 110t180.5 35q118 0 309 -67.5t277 -67.5q83 0 172 36.5t207 119.5zM1530 979v-184q-109 -75 -201.5 -108.5t-187.5 -33.5
q-88 0 -278.5 67.5t-299.5 67.5q-82 0 -170 -35t-215 -122v184q109 73 205 109.5t182 36.5q120 0 310 -68t268 -68q92 0 181 35t206 119z" />
    <glyph glyph-name="notequal" unicode="&#x2260;" horiz-adv-x="1706" 
d="M1204 1212l123 -100l-170 -215h295v-162h-403l-197 -250h600v-161h-707l-249 -314l-123 99l170 215h-289v161h393l199 250h-592v162h700z" />
    <glyph glyph-name="lessequal" unicode="&#x2264;" horiz-adv-x="1706" 
d="M260 178h1186v-166h-1186v166zM1446 1223v-176l-889 -287l889 -287v-176l-1186 389v145z" />
    <glyph glyph-name="greaterequal" unicode="&#x2265;" horiz-adv-x="1706" 
d="M260 178h1188v-166h-1188v166zM260 1223l1186 -392v-145l-1186 -389v176l891 287l-891 287v176z" />
    <glyph glyph-name="lozenge" unicode="&#x25ca;" horiz-adv-x="1012" 
d="M506 1409l-385 -817l385 -825l385 825zM506 1653l500 -1061l-500 -1069l-500 1069z" />
    <glyph glyph-name="apple" unicode="&#xf000;" horiz-adv-x="1618" 
d="M836 1216q-1 6 -1.5 14t-0.5 23q0 124 95 229.5t236 131.5q1 -10 1.5 -23t0.5 -39q0 -131 -103.5 -234.5t-203.5 -103.5h-8q-3 0 -7.5 1t-8.5 1zM1505 403q-114 -247 -205 -342.5t-204 -95.5q-50 0 -131.5 33t-122.5 33q-45 0 -131 -33t-127 -33q-64 0 -128.5 44
t-129.5 132q-102 140 -157.5 295.5t-55.5 300.5q0 219 125 356.5t323 137.5q68 0 155 -34t124 -34q34 0 121.5 35t152.5 35q110 0 198 -40t161 -124q-102 -65 -151.5 -145.5t-49.5 -182.5q0 -113 60 -200t173 -138z" />
    <glyph glyph-name="fi" unicode="&#xf001;" horiz-adv-x="1128" 
d="M811 1333q0 54 36.5 90.5t90.5 36.5t91.5 -36.5t37.5 -90.5t-37.5 -91.5t-91.5 -37.5q-55 0 -91 37t-36 92zM664 0l122 948h218l-125 -948h-215zM94 0l101 764h-172l24 184h170l33 236q28 217 98.5 301t218.5 84q47 0 89 -8.5t83 -26.5l-24 -186q-38 16 -65 23t-50 7
q-61 0 -91 -44.5t-48 -182.5l-27 -203h193l-25 -184h-192l-101 -764h-215z" />
    <glyph glyph-name="fl" unicode="&#xf002;" horiz-adv-x="1128" 
d="M879 0h-215l202 1550h215zM94 0l101 764h-172l24 184h170l33 236q28 217 98.5 301t218.5 84q47 0 89 -8.5t83 -26.5l-24 -186q-38 16 -65 23t-50 7q-61 0 -91 -44.5t-48 -182.5l-27 -203h193l-25 -184h-192l-101 -764h-215z" />
    </font>
</defs>
</svg>
